intporn.com forums
View Single Post
Old 06-06-2009, 01:00 PM  
King Of Movie
Guest
 
Posts: n/a
Talking Re: Stoya Heat Digital Playground | 6th june 09| XviD | DVDrip |1.36gb


Stoya Heat Digital Playground | 6th june 09| XviD | DVDrip |1.36gb

















Code:

•..• K i n g o f M o v i e   •..•   P r a u d l e y p r e g a n t s •..•

                  •..• Stoya Heat Digital Playground •..•


:  Movie Info  :

Cast:
Stoya, Madison Scott, Nika Noire, Priva, 
Danny Mountain, Erik Everhard, James Deen, 
Jerry, Johnny Sins, Scott Nails 


Plot:
'Stoya Heat' is an astounding platform for 
superstar Stoya to lose all inhibitions and 
throw herself completely into a world of sex 
and desire. There is no denying a girl's 
sexual satisfaction when all she craves is a 
giant cock in her pussy and ass. 'Stoya Heat' 
showcases the raw sexual desire and irresistible 
urges of horny girls on the prowl. Stoya sucks 
and fucks James Deen and takes Erik Everhard's 
cock in her ass. She is also double teamed by 
studs Scott Nails and Jerry properly fucked from 
both ends. Madison Scott, Priva, and Nika Noir 
join Stoya to show that nobody can resist a girl 
in Heat! 'Stoya: Heat' is the 10th adult film from 
Digital Playground shot using the Red One, the 
world's most powerful, digital camera. This title 
is hot hot hot! 

With an active picture height of 474 pixels, the source aspect ratio is 1.79.
The chosen resolution is within the margin of error as per the xvid rules.  

 
CD 1

General
Complete name                    : toya Heat Digital Playground[6th june 09][Kom].cd1.avi
Format                           : AVI
Format/Info                      : Audio Video Interleave
File size                        : 700 MiB
Duration                         : 59mn 5s
Overall bit rate                 : 1 656 Kbps
Writing application              : VirtualDubMod 1.5.4.1 (build 2178/release)
Writing library                  : VirtualDubMod build 2178/release

Video
Format                           : MPEG-4 Visual
Format profile                   : Simple@L3
Format settings, BVOP            : No
Format settings, QPel            : No
Format settings, GMC             : No warppoints
Format settings, Matrix          : Default
Codec ID                         : XVID
Codec ID/Hint                    : XviD
Duration                         : 59mn 5s
Bit rate                         : 1 540 Kbps
Width                            : 640 pixels
Height                           : 352 pixels
Display aspect ratio             : 16/9
Frame rate                       : 23.976 fps
Resolution                       : 24 bits
Colorimetry                      : 4:2:0
Scan type                        : Progressive
Bits/(Pixel*Frame)               : 0.285
Stream size                      : 651 MiB (93%)
Writing library                  : XviD 1.2.0.dev47 (UTC 2006-11-01)

Audio
Format                           : MPEG Audio
Format version                   : Version 1
Format profile                   : Layer 3
Codec ID                         : 55
Codec ID/Hint                    : MP3
Duration                         : 59mn 5s
Bit rate mode                    : Variable
Bit rate                         : 103 Kbps
Minimum bit rate                 : 128 Kbps
Channel(s)                       : 2 channels
Sampling rate                    : 48.0 KHz
Resolution                       : 16 bits
Stream size                      : 43.9 MiB (6%)
Alignment                        : Aligned on interleaves
Interleave, duration             : 24 ms (0.58 video frame)
Interleave, preload duration     : 179 ms
Writing library                  : LAME3.97 
Encoding settings                : ABR


=

CD 2

General
Complete name                    : toya Heat Digital Playground[6th june 09][Kom].cd2.avi
Format                           : AVI
Format/Info                      : Audio Video Interleave
File size                        : 700 MiB
Duration                         : 1h 0mn
Overall bit rate                 : 1 615 Kbps
Writing application              : VirtualDubMod 1.5.4.1 (build 2178/release)
Writing library                  : VirtualDubMod build 2178/release

Video
Format                           : MPEG-4 Visual
Format profile                   : Simple@L3
Format settings, BVOP            : No
Format settings, QPel            : No
Format settings, GMC             : No warppoints
Format settings, Matrix          : Default
Codec ID                         : XVID
Codec ID/Hint                    : XviD
Duration                         : 1h 0mn
Bit rate                         : 1 501 Kbps
Width                            : 640 pixels
Height                           : 352 pixels
Display aspect ratio             : 16/9
Frame rate                       : 23.976 fps
Resolution                       : 24 bits
Colorimetry                      : 4:2:0
Scan type                        : Progressive
Bits/(Pixel*Frame)               : 0.278
Stream size                      : 651 MiB (93%)
Writing library                  : XviD 1.2.0.dev47 (UTC 2006-11-01)

Audio
Format                           : MPEG Audio
Format version                   : Version 1
Format profile                   : Layer 3
Codec ID                         : 55
Codec ID/Hint                    : MP3
Duration                         : 1h 0mn
Bit rate mode                    : Variable
Bit rate                         : 103 Kbps
Channel(s)                       : 2 channels
Sampling rate                    : 48.0 KHz
Resolution                       : 16 bits
Stream size                      : 44.0 MiB (6%)
Alignment                        : Aligned on interleaves
Interleave, duration             : 24 ms (0.58 video frame)
Interleave, preload duration     : 522 ms



Code:
CD 1


http://www.easy-share.com/1905562852/Stoya Heat Digital Playground[6th june 09][Kom].cd1.part1.rar
http://www.easy-share.com/1905562864/Stoya Heat Digital Playground[6th june 09][Kom].cd1.part2.rar 
http://www.easy-share.com/1905562893/Stoya Heat Digital Playground[6th june 09][Kom].cd1.part3.rar
http://www.easy-share.com/1905562906/Stoya Heat Digital Playground[6th june 09][Kom].cd1.part4.rar
http://www.easy-share.com/1905562939/Stoya Heat Digital Playground[6th june 09][Kom].cd1.part5.rar
http://www.easy-share.com/1905562964/Stoya Heat Digital Playground[6th june 09][Kom].cd1.part6.rar
http://www.easy-share.com/1905563012/Stoya Heat Digital Playground[6th june 09][Kom].cd1.part7.rar
http://www.easy-share.com/1905562981/Stoya Heat Digital Playground[6th june 09][Kom].cd1.part8.rar


CD 2

http://www.easy-share.com/1905563054/Stoya Heat Digital Playground[6th june 09][Kom].cd2.part1.rar
http://www.easy-share.com/1905563087/Stoya Heat Digital Playground[6th june 09][Kom].cd2.part2.rar
http://www.easy-share.com/1905563135/Stoya Heat Digital Playground[6th june 09][Kom].cd2.part3.rar
http://www.easy-share.com/1905563163/Stoya Heat Digital Playground[6th june 09][Kom].cd2.part4.rar
http://www.easy-share.com/1905563208/Stoya Heat Digital Playground[6th june 09][Kom].cd2.part5.rar
http://www.easy-share.com/1905563250/Stoya Heat Digital Playground[6th june 09][Kom].cd2.part6.rar
http://www.easy-share.com/1905563457/Stoya Heat Digital Playground[6th june 09][Kom].cd2.part7.rar
http://www.easy-share.com/1905562820/Stoya Heat Digital Playground[6th june 09][Kom].cd2.part8.rar
  Reply With Quote

New Latest Movies Release Dvd Rip Mega Thread Daily Update

Free Porn Forums