intporn.com forums
View Single Post
Old 06-27-2009, 11:27 AM  
King Of Movie
Guest
 
Posts: n/a
Talking Housewives Of Amber Lane 2 [Wicked Pictures][Released : 26.6.09][700mb]






Housewives Of Amber Lane 2 [Wicked Pictures][Released : 26.6.09][700mb]














Code:

.. K i n g o f M o v i e   ..   P r a u d l e y p r e g a n t s ..

Release Date.: 26/06/2009      Format.......: XviD 
Dvd Release..: 03/06/2009      Video AR.....: 544x400
Prod.Year....: 2009            Video Rate...: 1373 kbps
Source.......: Dvd             Audio........: 128 kbps
Language.....: english         Disk Size....: 50x15mb 
Runtime......: 120 min                        50x15mb 
Prod Company.: Wicked                                 
Genre........: Gonzo


General
Complete name                    : Housewives Of Amber Lane 2 [Wicked Pictures][Released : 26.6.09][700mb].avi
Format                           : AVI
Format/Info                      : Audio Video Interleave
File size                        : 700 MiB
Duration                         : 1h 26mn
Overall bit rate                 : 1 136 Kbps
Writing application              : VirtualDubMod 1.5.10.2 (build 2542/release)
Writing library                  : VirtualDubMod build 2542/release

Video
ID                               : 0
Format                           : MPEG-4 Visual
Format profile                   : Streaming Video@L1
Format settings, BVOP            : Yes
Format settings, QPel            : No
Format settings, GMC             : No warppoints
Format settings, Matrix          : Default (H.263)
Codec ID                         : XVID
Codec ID/Hint                    : XviD
Duration                         : 1h 26mn
Bit rate                         : 998 Kbps
Width                            : 576 pixels
Height                           : 320 pixels
Display aspect ratio             : 16/9
Frame rate                       : 23.976 fps
Resolution                       : 24 bits
Colorimetry                      : 4:2:0
Scan type                        : Progressive
Bits/(Pixel*Frame)               : 0.226
Stream size                      : 615 MiB (88%)
Writing library                  : XviD 1.2.0.dev47 (UTC 2006-11-01)

Audio
ID                               : 1
Format                           : MPEG Audio
Format version                   : Version 1
Format profile                   : Layer 3
Codec ID                         : 55
Codec ID/Hint                    : MP3
Duration                         : 1h 26mn
Bit rate mode                    : Variable
Bit rate                         : 125 Kbps
Channel(s)                       : 2 channels
Sampling rate                    : 48.0 KHz
Resolution                       : 16 bits
Stream size                      : 77.0 MiB (11%)
Alignment                        : Aligned on interleaves
Interleave, duration             : 24 ms (0.58 video frame)
Interleave, preload duration     : 504 ms


Code:
http://www.easy-share.com/1906271659/Housewives Of Amber Lane 2 [Wicked Pictures]ReleaseD ON 26-6-09[KoPm].part1.rar
http://www.easy-share.com/1906271706/Housewives Of Amber Lane 2 [Wicked Pictures]ReleaseD ON 26-6-09[KoPm].part2.rar
http://www.easy-share.com/1906271751/Housewives Of Amber Lane 2 [Wicked Pictures]ReleaseD ON 26-6-09[KoPm].part3.rar
http://www.easy-share.com/1906271792/Housewives Of Amber Lane 2 [Wicked Pictures]ReleaseD ON 26-6-09[KoPm].part4.rar
http://www.easy-share.com/1906271879/Housewives Of Amber Lane 2 [Wicked Pictures]ReleaseD ON 26-6-09[KoPm].part5.rar
http://www.easy-share.com/1906271923/Housewives Of Amber Lane 2 [Wicked Pictures]ReleaseD ON 26-6-09[KoPm].part6.rar
http://www.easy-share.com/1906271966/Housewives Of Amber Lane 2 [Wicked Pictures]ReleaseD ON 26-6-09[KoPm].part7.rar
http://www.easy-share.com/1906271967/Housewives Of Amber Lane 2 [Wicked Pictures]ReleaseD ON 26-6-09[KoPm].part8.rar






  Reply With Quote

New Latest Movies Release Dvd Rip Mega Thread Daily Update

Free Porn Forums