intporn.com forums
View Single Post
Old 07-01-2009, 10:10 AM  
King Of Movie
Guest
 
Posts: n/a
Default You & Us - DIGITAL PLAYGROUND - Release Date: June 30 2009


You & Us - DIGITAL PLAYGROUND - Release Date: June 30 2009











Code:
.. K i n g o f M o v i e   ..   P r a u d l e y p r e g a n t s ..

General
Complete name                    : C:\You.And.Us.XXX.DVDRip.XviD-Released 1-7-09-DigitalPlayground.avi
Format                           : AVI
Format/Info                      : Audio Video Interleave
File size                        : 695 MiB
Duration                         : 1h 32mn
Overall bit rate                 : 1 053 Kbps
Writing application              : VirtualDubMod 1.5.10.2 (build 2540/release)
Writing library                  : VirtualDubMod build 2540/release

Video
ID                               : 0
Format                           : MPEG-4 Visual
Format profile                   : Streaming Video@L1
Format settings, BVOP            : Yes
Format settings, QPel            : No
Format settings, GMC             : No warppoints
Format settings, Matrix          : Default (H.263)
Codec ID                         : XVID
Codec ID/Hint                    : XviD
Duration                         : 1h 32mn
Bit rate                         : 911 Kbps
Width                            : 624 pixels
Height                           : 352 pixels
Display aspect ratio             : 16/9
Frame rate                       : 29.970 fps
Resolution                       : 24 bits
Colorimetry                      : 4:2:0
Scan type                        : Progressive
Bits/(Pixel*Frame)               : 0.138
Stream size                      : 601 MiB (86%)
Writing library                  : XviD 1.2.1 (UTC 2008-12-04)

Audio
ID                               : 1
Format                           : MPEG Audio
Format version                   : Version 1
Format profile                   : Layer 3
Codec ID                         : 55
Codec ID/Hint                    : MP3
Duration                         : 1h 32mn
Bit rate mode                    : Variable
Bit rate                         : 128 Kbps
Channel(s)                       : 2 channels
Sampling rate                    : 48.0 KHz
Resolution                       : 16 bits
Stream size                      : 84.8 MiB (12%)
Alignment                        : Aligned on interleaves
Interleave, duration             : 24 ms (0.72 video frame)
Interleave, preload duration     : 143 ms
Writing library                  : LAME3.90.
Encoding settings                : -m j -V 4 -q 2 -lowpass 17.6 --abr 128


Code:
http://www.easy-share.com/1906506290/You.And.Us.XXX.DVDRip.XviD-Released 1-7-09-DigitalPlayground.part1.rar
http://www.easy-share.com/1906506383/You.And.Us.XXX.DVDRip.XviD-Released 1-7-09-DigitalPlayground.part2.rar
http://www.easy-share.com/1906507965/You.And.Us.XXX.DVDRip.XviD-Released 1-7-09-DigitalPlayground.part3.rar
http://www.easy-share.com/1906506429/You.And.Us.XXX.DVDRip.XviD-Released 1-7-09-DigitalPlayground.part4.rar
http://www.easy-share.com/1906506652/You.And.Us.XXX.DVDRip.XviD-Released 1-7-09-DigitalPlayground.part5.rar
http://www.easy-share.com/1906506699/You.And.Us.XXX.DVDRip.XviD-Released 1-7-09-DigitalPlayground.part6.rar
http://www.easy-share.com/1906506746/You.And.Us.XXX.DVDRip.XviD-Released 1-7-09-DigitalPlayground.part7.rar
http://www.easy-share.com/1906506750/You.And.Us.XXX.DVDRip.XviD-Released 1-7-09-DigitalPlayground.part8.rar






  Reply With Quote

New Latest Movies Release Dvd Rip Mega Thread Daily Update

Free Porn Forums