View Single Post
Old 07-01-2009, 10:41 AM  
King Of Movie
Posts: n/a
Default Ken Park (2002) by Larry Clark, Edward Lachman - Uncut [ Most Wanted Movie]

Ken Park (2002) by Larry Clark, Edward Lachman - Uncut [ Most Wanted Movie]

.. K i n g o f M o v i e   ..   P r a u d l e y p r e g a n t s ..

In a city in California, the skateboarders Shawn, Claude and Tate and Peaches are friends of the suicidal teenager Ken Park. Shawn has intercourse with his girlfriend and her mother. Claude has an abusive, violent and alcoholic father and a neglectful and passive pregnant mother. Tate is addicted to masturbation and hates his grandparents who raise him due to the lack of privacy in his own room. Peaches practices kinky sex and has a fanatical religious father who misses his wife.

Very graphic, the film is crammed with nudity, real sex. I think no movie has shown as many penises on the screen except a porn. It's the dissection of an ordinary neighborhood's life through the lives of teenagers tangled in sex and problems with their entourage. The final scene gives, like it ought do, to the movie its whole meaning: the futile and fugitive character of life, hence the hedonism and the epicureanism of the film's characters.

Complete name                    : C:Ken_Park[2002]-Uncut.avi
Format                           : AVI
Format/Info                      : Audio Video Interleave
File size                        : 700 MiB
Duration                         : 1h 29mn
Overall bit rate                 : 1 095 Kbps
Writing application              : VirtualDubMod (build 2178/release)
Writing library                  : VirtualDubMod build 2178/release

ID                               : 0
Format                           : MPEG-4 Visual
Format profile                   : Streaming Video@L1
Format settings, BVOP            : Yes
Format settings, QPel            : No
Format settings, GMC             : No warppoints
Format settings, Matrix          : Custom
Codec ID                         : XVID
Codec ID/Hint                    : XviD
Duration                         : 1h 29mn
Bit rate                         : 968 Kbps
Width                            : 720 pixels
Height                           : 416 pixels
Display aspect ratio             : 16/9
Frame rate                       : 25.000 fps
Resolution                       : 24 bits
Colorimetry                      : 4:2:0
Scan type                        : Progressive
Bits/(Pixel*Frame)               : 0.129
Stream size                      : 619 MiB (88%)
Writing library                  : XviD 1.2.0.dev47 (UTC 2006-11-01)

ID                               : 1
Format                           : MPEG Audio
Format version                   : Version 1
Format profile                   : Layer 3
Codec ID                         : 55
Codec ID/Hint                    : MP3
Duration                         : 1h 29mn
Bit rate mode                    : Variable
Bit rate                         : 114 Kbps
Nominal bit rate                 : 128 Kbps
Channel(s)                       : 2 channels
Sampling rate                    : 48.0 KHz
Resolution                       : 16 bits
Stream size                      : 72.6 MiB (10%)
Alignment                        : Aligned on interleaves
Interleave, duration             : 24 ms (0.60 video frame)
Interleave, preload duration     : 162 ms
Writing library                  : LAME3.97 
Encoding settings                : -m j -V 4 -q 2 -lowpass 17 --abr 128
Language                         : English

  Reply With Quote

New Latest Movies Release Dvd Rip Mega Thread Daily Update

Free Porn Forums