intporn.com forums
View Single Post
Old 07-03-2009, 09:47 AM  
King Of Movie
Guest
 
Posts: n/a
Default Undress Me,Sunny Leone [ViviD][Released : 2.7.09]

Undress Me,Sunny Leone [ViviD][Released : 2.7.09]
Code:
   .. K i n g o f M o v i e   ..   P r a u d l e y p r e g a n t s ..  Synopsis    Unzip for Pleasure. Five awesome strip teases that all end just like you like it...with explosive, nasty, raw ***! Each girl looks you right in the eye while she does a 15-minute strip-tease that'll put you on the edge of your seat...but not before Sunny has her second boy-girl scene ever...and it's smokin! It's like a lapdance on your couch. It's like having the pole in your home...not just in your pants. It's Undress Me, only from B. Skow and Vivid.    Cast    Jada Fire  Faye Reagan  Ryder Skye  Sochee Mala  Sunny Leone  Voodoo  Dane Cross  Ariel King  B. Skow Director   CD | 2  General Complete name : C: Undress Me [ViviD][Released 2.7.09].CD.2.avi Format : AVI Format/Info : Audio Video Interleave File size : 699 MiB Duration : 1h 23mn Overall bit rate : 1 167 Kbps Writing application : VirtualDubMod 1.5.4.1 (build 2178/release) Writing library : VirtualDubMod build 2178/release  Video ID : 0 Format : MPEG-4 Visual Format profile : Streaming Video@L1 Format settings, BVOP : Yes Format settings, QPel : No Format settings, GMC : No warppoints Format settings, Matrix : Default (H.263) Muxing mode : Packed bitstream Codec ID : XVID Codec ID/Hint : XviD Duration : 1h 23mn Bit rate : 1 012 Kbps Width : 576 pixels Height : 320 pixels Display aspect ratio : 16/9 Frame rate : 29.970 fps Resolution : 24 bits Colorimetry : 40 Scan type : Progressive Bits/(Pixel*Frame) : 0.183 Stream size : 606 MiB (87%) Writing library : XviD 1.2.1 (UTC 2008-12-04)  Audio ID : 1 Format : MPEG Audio Format version : Version 1 Format profile : Layer 3 Codec ID : 55 Codec ID/Hint : MP3 Duration : 1h 23mn Bit rate mode : Variable Bit rate : 142 Kbps Channel(s) : 2 channels Sampling rate : 48.0 KHz Resolution : 16 bits Stream size : 84.5 MiB (12%) Alignment : Aligned on interleaves Interleave, duration : 24 ms (0.72 video frame) Interleave, preload duration : 527 ms  CD | 1  General Complete name : C:Undress Me [ViviD][Released 2.7.09]CD.1.avi Format : AVI Format/Info : Audio Video Interleave File size : 699 MiB Duration : 1h 26mn Overall bit rate : 1 131 Kbps Writing application : VirtualDubMod 1.5.4.1 (build 2178/release) Writing library : VirtualDubMod build 2178/release  Video ID : 0 Format : MPEG-4 Visual Format profile : Streaming Video@L1 Format settings, BVOP : Yes Format settings, QPel : No Format settings, GMC : No warppoints Format settings, Matrix : Default (H.263) Muxing mode : Packed bitstream Codec ID : XVID Codec ID/Hint : XviD Duration : 1h 26mn Bit rate : 975 Kbps Width : 576 pixels Height : 320 pixels Display aspect ratio : 16/9 Frame rate : 29.970 fps Resolution : 24 bits Colorimetry : 40 Scan type : Progressive Bits/(Pixel*Frame) : 0.176 Stream size : 603 MiB (86%) Writing library : XviD 1.2.1 (UTC 2008-12-04)  Audio ID : 1 Format : MPEG Audio Format version : Version 1 Format profile : Layer 3 Codec ID : 55 Codec ID/Hint : MP3 Duration : 1h 26mn Bit rate mode : Variable Bit rate : 142 Kbps Nominal bit rate : 160 Kbps Channel(s) : 2 channels Sampling rate : 48.0 KHz Resolution : 16 bits Stream size : 87.9 MiB (13%) Alignment : Aligned on interleaves Interleave, duration : 24 ms (0.72 video frame) Interleave, preload duration : 129 ms Writing library : LAME3.98r Encoding settings : -m j -V 4 -q 2 -lowpass 17.5 --abr 160
Code:
 http://www.easy-share.com/1906582126/[DADA] Undress Me [ViviD][Released  2.7.09]CD.1.part1.rar http://www.easy-share.com/1906582133/[DADA] Undress Me [ViviD][Released  2.7.09]CD.1.part2.rar http://www.easy-share.com/1906582142/[DADA] Undress Me [ViviD][Released  2.7.09]CD.1.part3.rar http://www.easy-share.com/1906582150/[DADA] Undress Me [ViviD][Released  2.7.09]CD.1.part4.rar http://www.easy-share.com/1906582194/[DADA] Undress Me [ViviD][Released  2.7.09]CD.1.part5.rar http://www.easy-share.com/1906582195/[DADA] Undress Me [ViviD][Released  2.7.09]CD.1.part6.rar http://www.easy-share.com/1906582199/[DADA] Undress Me [ViviD][Released  2.7.09]CD.1.part7.rar http://www.easy-share.com/1906582201/[DADA] Undress Me [ViviD][Released  2.7.09]CD.1.part8.rar  http://www.easy-share.com/1906582247/[DADA] Undress Me [ViviD][Released  2.7.09].CD.2.part1.rar http://www.easy-share.com/1906582266/[DADA] Undress Me [ViviD][Released  2.7.09].CD.2.part2.rar http://www.easy-share.com/1906582290/[DADA] Undress Me [ViviD][Released  2.7.09].CD.2.part3.rar http://www.easy-share.com/1906582314/[DADA] Undress Me [ViviD][Released  2.7.09].CD.2.part4.rar http://www.easy-share.com/1906582491/[DADA] Undress Me [ViviD][Released  2.7.09].CD.2.part5.rar http://www.easy-share.com/1906582468/[DADA] Undress Me [ViviD][Released  2.7.09].CD.2.part6.rar http://www.easy-share.com/1906582515/[DADA] Undress Me [ViviD][Released  2.7.09].CD.2.part7.rar http://www.easy-share.com/1906582522/[DADA] Undress Me [ViviD][Released  2.7.09].CD.2.part8.rar
  Reply With Quote

New Latest Movies Release Dvd Rip Mega Thread Daily Update

Free Porn Forums