intporn.com forums
View Single Post
Old 07-03-2009, 12:49 PM  
King Of Movie
Guest
 
Posts: n/a
Lightbulb Seinfeld A X.X.X Parody DVDRip XviD [New Sensations][Released 3.7.09]




Seinfeld A X.X.X Parody DVDRip XviD [New Sensations][Released 3.7.09]

















Code:

.. K i n g o f M o v i e   ..   P r a u d l e y p r e g a n t s ..

Synopsis



Unzip for Pleasure. Five awesome strip teases that all end just like you like it...with explosive, nasty, raw ***!
Each girl looks you right in the eye while she does a 15-minute strip-tease that'll put you on the edge of your seat...but not before Sunny has her second boy-girl scene ever...and it's smokin!
It's like a lapdance on your couch. It's like having the pole in your home...not just in your pants. It's Undress Me, only from B. Skow and Vivid.



Cast


 Jada Fire
 Faye Reagan
 Ryder Skye
 Sochee Mala
 Sunny Leone
 Voodoo
 Dane Cross
 Ariel King
 B. Skow Director 

CD | 1

General
Complete name                    : C: Seinfeld A X.X.X Parody DVDRip XviD [New Sensations][Released  3.7.09].CD.1.avi
Format                           : AVI
Format/Info                      : Audio Video Interleave
File size                        : 699 MiB
Duration                         : 1h 9mn
Overall bit rate                 : 1 409 Kbps
Writing application              : VirtualDubMod 1.5.10.2 (build 2540/release)
Writing library                  : VirtualDubMod build 2540/release

Video
ID                               : 0
Format                           : MPEG-4 Visual
Format profile                   : Streaming Video@L1
Format settings, BVOP            : Yes
Format settings, QPel            : No
Format settings, GMC             : No warppoints
Format settings, Matrix          : Default (MPEG)
Codec ID                         : XVID
Codec ID/Hint                    : XviD
Duration                         : 1h 9mn
Bit rate                         : 1 260 Kbps
Width                            : 624 pixels
Height                           : 352 pixels
Display aspect ratio             : 16/9
Frame rate                       : 29.970 fps
Resolution                       : 24 bits
Colorimetry                      : 4:2:0
Scan type                        : Progressive
Bits/(Pixel*Frame)               : 0.191
Stream size                      : 625 MiB (89%)
Writing library                  : XviD 1.2.1 (UTC 2008-12-04)

Audio
ID                               : 1
Format                           : MPEG Audio
Format version                   : Version 1
Format profile                   : Layer 3
Codec ID                         : 55
Codec ID/Hint                    : MP3
Duration                         : 1h 9mn
Bit rate mode                    : Variable
Bit rate                         : 135 Kbps
Nominal bit rate                 : 130 Kbps
Channel(s)                       : 2 channels
Sampling rate                    : 48.0 KHz
Resolution                       : 16 bits
Stream size                      : 67.3 MiB (10%)
Alignment                        : Aligned on interleaves
Interleave, duration             : 24 ms (0.72 video frame)
Interleave, preload duration     : 480 ms
Writing library                  : LAME3.90.
Encoding settings                : -m j -V 4 -q 2 -lowpass 17.6 --abr 130

CD | 2
General
Complete name                    : C:Seinfeld A X.X.X Parody DVDRip XviD [New Sensations][Released  3.7.09].CD.2.avi
Format                           : AVI
Format/Info                      : Audio Video Interleave
File size                        : 693 MiB
Duration                         : 1h 14mn
Overall bit rate                 : 1 306 Kbps
Writing application              : VirtualDubMod 1.5.10.2 (build 2540/release)
Writing library                  : VirtualDubMod build 2540/release

Video
ID                               : 0
Format                           : MPEG-4 Visual
Format profile                   : Streaming Video@L1
Format settings, BVOP            : Yes
Format settings, QPel            : No
Format settings, GMC             : No warppoints
Format settings, Matrix          : Default (MPEG)
Codec ID                         : XVID
Codec ID/Hint                    : XviD
Duration                         : 1h 14mn
Bit rate                         : 1 158 Kbps
Width                            : 624 pixels
Height                           : 352 pixels
Display aspect ratio             : 16/9
Frame rate                       : 29.970 fps
Resolution                       : 24 bits
Colorimetry                      : 4:2:0
Scan type                        : Progressive
Bits/(Pixel*Frame)               : 0.176
Stream size                      : 615 MiB (89%)
Writing library                  : XviD 1.2.1 (UTC 2008-12-04)


Code:


CD | 1 

http://www.easy-share.com/1906583964/Seinfeld A X.X.X Parody DVDRip XviD [New Sensations][Released  3.7.09].CD.1.part1.rar
http://www.easy-share.com/1906583976/Seinfeld A X.X.X Parody DVDRip XviD [New Sensations][Released  3.7.09].CD.1.part2.rar
http://www.easy-share.com/1906583990/Seinfeld A X.X.X Parody DVDRip XviD [New Sensations][Released  3.7.09].CD.1.part3.rar
http://www.easy-share.com/1906584003/Seinfeld A X.X.X Parody DVDRip XviD [New Sensations][Released  3.7.09].CD.1.part4.rar
http://www.easy-share.com/1906584055/Seinfeld A X.X.X Parody DVDRip XviD [New Sensations][Released  3.7.09].CD.1.part5.rar
http://www.easy-share.com/1906584071/Seinfeld A X.X.X Parody DVDRip XviD [New Sensations][Released  3.7.09].CD.1.part6.rar
http://www.easy-share.com/1906584081/Seinfeld A X.X.X Parody DVDRip XviD [New Sensations][Released  3.7.09].CD.1.part7.rar
http://www.easy-share.com/1906584085/Seinfeld A X.X.X Parody DVDRip XviD [New Sensations][Released  3.7.09].CD.1.part8.rar



CD | 2

http://www.easy-share.com/1906584727/Seinfeld A X.X.X Parody DVDRip XviD [New Sensations][Released  3.7.09].CD.2.part1.rar
http://www.easy-share.com/1906584732/Seinfeld A X.X.X Parody DVDRip XviD [New Sensations][Released  3.7.09].CD.2.part2.rar
http://www.easy-share.com/1906584741/Seinfeld A X.X.X Parody DVDRip XviD [New Sensations][Released  3.7.09].CD.2.part3.rar
http://www.easy-share.com/1906584750/Seinfeld A X.X.X Parody DVDRip XviD [New Sensations][Released  3.7.09].CD.2.part4.rar
http://www.easy-share.com/1906584775/Seinfeld A X.X.X Parody DVDRip XviD [New Sensations][Released  3.7.09].CD.2.part5.rar
http://www.easy-share.com/1906584780/Seinfeld A X.X.X Parody DVDRip XviD [New Sensations][Released  3.7.09].CD.2.part6.rar
http://www.easy-share.com/1906584786/Seinfeld A X.X.X Parody DVDRip XviD [New Sensations][Released  3.7.09].CD.2.part7.rar
http://www.easy-share.com/1906584788/Seinfeld A X.X.X Parody DVDRip XviD [New Sensations][Released  3.7.09].CD.2.part8.rar







  Reply With Quote

New Latest Movies Release Dvd Rip Mega Thread Daily Update

Free Porn Forums