View Single Post
Old 07-04-2009, 12:19 PM  
King Of Movie
Posts: n/a
Default House Of Wicked DVDRiP XviD [Wicked Pictures]

House Of Wicked DVDRiP XviD [Wicked Pictures]


.. K i n g o f M o v i e   ..   P r a u d l e y p r e g a n t s ..

Starring Wicked Pictures Exclusive Contract Stars TOGETHER FOR THE FIRST TIME For the first time in Wicked Pictures history all of Wicked's contract SUPERSTARS come together in one incredible movie. Alekta, jessica, Kaylani, Kristen, Mikayla and Stormy as you've never seen them before... The result is the HOUSE OF WICKED, an amazing combination of beauty, style, and raw sexual energy. These ravishing beauties slide into their own brand of Wicked Couture, and work it for the cameras like no one else can... Gothic, Club Wear, Asian Flair, Skater Chic, Cowgirl, Prep School, or Heavy Metal, each of which sets the stage for the WICKED GIRLS to do what they do best... and they've never looked more amazing doing it. Once you've entered the HOUSE OF WICKED you'll never want to leave... 

        Jessica Drake  
      Stormy Daniels 
      Alektra Blue 
      Kaylani Lei 
      Kirsten Price 
      Mikayla Mendez 
      Tommy Gunn
      Brad Armstrong
      Barrett Blade
      Derrick Pierce
      Marcus London
      Kris Slater
      Deep Threat
      Alan Stafford
      Johnny Castle
      Rocco Reed
      Danny Mountain
      Brad Armstrong - Director 

Complete name                    : C: House Of Wicked DVDRiP XviD [Wicked Pictures].avi
Format                           : AVI
Format/Info                      : Audio Video Interleave
File size                        : 700 MiB
Duration                         : 1h 25mn
Overall bit rate                 : 1 139 Kbps
Writing application              : VirtualDubMod (build 2178/release)
Writing library                  : VirtualDubMod build 2178/release

ID                               : 0
Format                           : MPEG-4 Visual
Format profile                   : Streaming Video@L1
Format settings, BVOP            : Yes
Format settings, QPel            : No
Format settings, GMC             : No warppoints
Format settings, Matrix          : Default (H.263)
Muxing mode                      : Packed bitstream
Codec ID                         : XVID
Codec ID/Hint                    : XviD
Duration                         : 1h 25mn
Bit rate                         : 974 Kbps
Width                            : 576 pixels
Height                           : 320 pixels
Display aspect ratio             : 16/9
Frame rate                       : 23.976 fps
Resolution                       : 24 bits
Colorimetry                      : 4:2:0
Scan type                        : Progressive
Bits/(Pixel*Frame)               : 0.220
Stream size                      : 599 MiB (85%)
Writing library                  : XviD 1.2.1 (UTC 2008-12-04)

ID                               : 1
Format                           : MPEG Audio
Format version                   : Version 1
Format profile                   : Layer 3
Codec ID                         : 55
Codec ID/Hint                    : MP3
Duration                         : 1h 25mn
Bit rate mode                    : Variable
Bit rate                         : 153 Kbps
Nominal bit rate                 : 160 Kbps
Channel(s)                       : 2 channels
Sampling rate                    : 48.0 KHz
Resolution                       : 16 bits
Stream size                      : 93.8 MiB (13%)
Alignment                        : Aligned on interleaves
Interleave, duration             : 24 ms (0.58 video frame)
Interleave, preload duration     : 176 ms
Writing library                  : LAME3.98r
Encoding settings                : -m j -V 4 -q 2 -lowpass 17.5 --abr 160
Language                         : English

Code: Of Wicked DVDRiP XviD [Wicked Pictures].part1.rar Of Wicked DVDRiP XviD [Wicked Pictures].part2.rar Of Wicked DVDRiP XviD [Wicked Pictures].part3.rar Of Wicked DVDRiP XviD [Wicked Pictures].part4.rar Of Wicked DVDRiP XviD [Wicked Pictures].part5.rar Of Wicked DVDRiP XviD [Wicked Pictures].part6.rar Of Wicked DVDRiP XviD [Wicked Pictures].part7.rar Of Wicked DVDRiP XviD [Wicked Pictures].part8.rar

  Reply With Quote

New Latest Movies Release Dvd Rip Mega Thread Daily Update

Free Porn Forums