intporn.com forums
View Single Post
Old 07-13-2009, 03:01 PM  
King Of Movie
Guest
 
Posts: n/a
Default



Everybody Needs Milf | Penthouse | Release 13.7.09 |700Mb















Code:


.. K i n g o f M o v i e   ..   P r a u d l e y p r e g a n t s ..

Synopsis
Wanna fuck?  Penthouse has what you need! Hot & Horny MILFs! 

        Alana Evans 
      Darryl Hanah 
      Raquel Devine  
      India Summer  
      Sienna West  
      Tommy Gunn
      Nick Manning
      Dane Cross
      Mike Butders
      Director  Cash Markman





General
Complete name                    : C:  Everybody Needs Milf.Penthouse.Release 13.7.09.[KoM].avi
Format                           : AVI
Format/Info                      : Audio Video Interleave
File size                        : 699 MiB
Duration                         : 1h 31mn
Overall bit rate                 : 1 071 Kbps
Writing application              : VirtualDubMod 1.5.10.2 (build 2540/release)
Writing library                  : VirtualDubMod build 2540/release

Video
ID                               : 0
Format                           : MPEG-4 Visual
Format profile                   : Advanced Simple@L5
Format settings, BVOP            : Yes
Format settings, QPel            : No
Format settings, GMC             : No warppoints
Format settings, Matrix          : Default (H.263)
Muxing mode                      : Packed bitstream
Codec ID                         : XVID
Codec ID/Hint                    : XviD
Duration                         : 1h 31mn
Bit rate                         : 932 Kbps
Width                            : 576 pixels
Height                           : 320 pixels
Display aspect ratio             : 16/9
Frame rate                       : 29.970 fps
Resolution                       : 24 bits
Colorimetry                      : 4:2:0
Scan type                        : Progressive
Bits/(Pixel*Frame)               : 0.169
Stream size                      : 608 MiB (87%)
Writing library                  : XviD 1.0.3 (UTC 2004-12-20)

Audio
ID                               : 1
Format                           : MPEG Audio
Format version                   : Version 1
Format profile                   : Layer 3
Codec ID                         : 55
Codec ID/Hint                    : MP3
Duration                         : 1h 31mn
Bit rate mode                    : Variable
Bit rate                         : 125 Kbps
Nominal bit rate                 : 128 Kbps
Channel(s)                       : 2 channels
Sampling rate                    : 48.0 KHz
Resolution                       : 16 bits
Stream size                      : 81.7 MiB (12%)
Alignment                        : Aligned on interleaves
Interleave, duration             : 24 ms (0.72 video frame)
Interleave, preload duration     : 147 ms
Writing library                  : LAME3.90.
Encoding settings                : -m j -V 4 -q 2 -lowpass 17.6 --abr 128




Code:
http://www.easy-share.com/1906735210/Everybody Needs Milf.Penthouse.Release 13.7.09[KoM].part1.rar
http://www.easy-share.com/1906735213/Everybody Needs Milf.Penthouse.Release 13.7.09[KoM].part2.rar
http://www.easy-share.com/1906735222/Everybody Needs Milf.Penthouse.Release 13.7.09[KoM].part3.rar
http://www.easy-share.com/1906735215/Everybody Needs Milf.Penthouse.Release 13.7.09[KoM].part4.rar
http://www.easy-share.com/1906735263/Everybody Needs Milf.Penthouse.Release 13.7.09[KoM].part5.rar
http://www.easy-share.com/1906735267/Everybody Needs Milf.Penthouse.Release 13.7.09[KoM].part6.rar
http://www.easy-share.com/1906735374/Everybody Needs Milf.Penthouse.Release 13.7.09[KoM].part7.rar
http://www.easy-share.com/1906735376/Everybody Needs Milf.Penthouse.Release 13.7.09[KoM].part8.rar






  Reply With Quote

New Latest Movies Release Dvd Rip Mega Thread Daily Update

Free Porn Forums