intporn.com forums
View Single Post
Old 07-15-2009, 01:29 PM  
King Of Movie
Guest
 
Posts: n/a
Default Screw My Girlfriend.While I Watch | New Sensations| Release 15.7.09 | 1.36 GB



Screw My Girlfriend.While I Watch | New Sensations| Release 15.7.09 | 1.36 GB




















Code:


.. K i n g o f M o v i e   ..   P r a u d l e y p r e g a n t s ..
Synopsis
Chastity Lynn, Cassie Rose, Allyssa Hall, Brooke Adams, and Amber Sun love to get their pussies ripped and ravaged while being watched. So sit back and enjoy the show, because these girlfriends are about to get pounded by someone else's dick! Oh, did we mention it's the boyfriends doing the watching? Because that's exactly what turns these bitches on! 


        Alyssa Hall  - (bio)
      Brooke Adams
      Chastity Lynne
      Amber Sun
      Tommy Gunn
      Billy Glide
      Jerry
      Alex Gonz
      Mike Butders




General
Complete name                    : C:Screw My Girlfriend.While I Watch[New Sensations][Kom]-cd1.avi
Format                           : AVI
Format/Info                      : Audio Video Interleave
File size                        : 700 MiB
Duration                         : 1h 32mn
Overall bit rate                 : 1 056 Kbps
Writing application              : VirtualDubMod 1.5.10.2 (build 2540/release)
Writing library                  : VirtualDubMod build 2540/release

Video
ID                               : 0
Format                           : MPEG-4 Visual
Format profile                   : Advanced Simple@L5
Format settings, BVOP            : Yes
Format settings, QPel            : No
Format settings, GMC             : No warppoints
Format settings, Matrix          : Default (MPEG)
Codec ID                         : XVID
Codec ID/Hint                    : XviD
Duration                         : 1h 32mn
Bit rate                         : 915 Kbps
Width                            : 624 pixels
Height                           : 352 pixels
Display aspect ratio             : 16/9
Frame rate                       : 29.970 fps
Resolution                       : 24 bits
Colorimetry                      : 4:2:0
Scan type                        : Progressive
Bits/(Pixel*Frame)               : 0.139
Stream size                      : 607 MiB (87%)
Writing library                  : XviD 1.2.1 (UTC 2008-12-04)

Audio
ID                               : 1
Format                           : MPEG Audio
Format version                   : Version 1
Format profile                   : Layer 3
Codec ID                         : 55
Codec ID/Hint                    : MP3
Duration                         : 1h 32mn
Bit rate mode                    : Variable
Bit rate                         : 128 Kbps
Channel(s)                       : 2 channels
Sampling rate                    : 48.0 KHz
Resolution                       : 16 bits
Stream size                      : 84.2 MiB (12%)
Alignment                        : Aligned on interleaves
Interleave, duration             : 24 ms (0.72 video frame)
Interleave, preload duration     : 144 ms
Writing library                  : LAME3.90.
Encoding settings                : -m j -V 4 -q 2 -lowpass 17.6 --abr 128




General
Complete name                    : C:Screw My Girlfriend.While I Watch[New Sensations][KoM]]-cd2.avi
Format                           : AVI
Format/Info                      : Audio Video Interleave
File size                        : 690 MiB
Duration                         : 1h 31mn
Overall bit rate                 : 1 055 Kbps
Writing application              : VirtualDubMod 1.5.10.2 (build 2540/release)
Writing library                  : VirtualDubMod build 2540/release

Video
ID                               : 0
Format                           : MPEG-4 Visual
Format profile                   : Advanced Simple@L5
Format settings, BVOP            : Yes
Format settings, QPel            : No
Format settings, GMC             : No warppoints
Format settings, Matrix          : Default (MPEG)
Codec ID                         : XVID
Codec ID/Hint                    : XviD
Duration                         : 1h 31mn
Bit rate                         : 913 Kbps
Width                            : 624 pixels
Height                           : 352 pixels
Display aspect ratio             : 16/9
Frame rate                       : 29.970 fps
Resolution                       : 24 bits
Colorimetry                      : 4:2:0
Scan type                        : Progressive
Bits/(Pixel*Frame)               : 0.139
Stream size                      : 597 MiB (87%)
Writing library                  : XviD 1.2.1 (UTC 2008-12-04)

Audio
ID                               : 1
Format                           : MPEG Audio
Format version                   : Version 1
Format profile                   : Layer 3
Codec ID                         : 55
Codec ID/Hint                    : MP3
Duration                         : 1h 31mn
Bit rate mode                    : Variable
Bit rate                         : 127 Kbps
Channel(s)                       : 2 channels
Sampling rate                    : 48.0 KHz
Resolution                       : 16 bits
Stream size                      : 83.6 MiB (12%)
Alignment                        : Aligned on interleaves
Interleave, duration             : 24 ms (0.72 video frame)
Interleave, preload duration     : 518 ms





Code:
CD-1

http://www.easy-share.com/1906761719/Screw My Girlfriend.While I Watch[New Sensations][KoM]-cd1.avi.001
http://www.easy-share.com/1906761725/Screw My Girlfriend.While I Watch[New Sensations][KoM]-cd1.avi.002
http://www.easy-share.com/1906761736/Screw My Girlfriend.While I Watch[New Sensations][KoM]-cd1.avi.003
http://www.easy-share.com/1906761739/Screw My Girlfriend.While I Watch[New Sensations][KoM]-cd1.avi.004
http://www.easy-share.com/1906761740/Screw My Girlfriend.While I Watch[New Sensations][KoM]-cd1.avi.005
http://www.easy-share.com/1906761744/Screw My Girlfriend.While I Watch[New Sensations][KoM]-cd1.avi.006
http://www.easy-share.com/1906761753/Screw My Girlfriend.While I Watch[New Sensations][KoM]-cd1.avi.007
http://www.easy-share.com/1906761756/Screw My Girlfriend.While I Watch[New Sensations][KoM]-cd1.avi.008

CD-2

http://www.easy-share.com/1906761759/Screw My Girlfriend.While I Watch[New Sensations][KoM]]-cd2.avi.001
http://www.easy-share.com/1906761761/Screw My Girlfriend.While I Watch[New Sensations][KoM]]-cd2.avi.002
http://www.easy-share.com/1906761774/Screw My Girlfriend.While I Watch[New Sensations][KoM]]-cd2.avi.003
http://www.easy-share.com/1906761811/Screw My Girlfriend.While I Watch[New Sensations][KoM]]-cd2.avi.004
http://www.easy-share.com/1906761812/Screw My Girlfriend.While I Watch[New Sensations][KoM]]-cd2.avi.005
http://www.easy-share.com/1906761814/Screw My Girlfriend.While I Watch[New Sensations][KoM]]-cd2.avi.006
http://www.easy-share.com/1906761816/Screw My Girlfriend.While I Watch[New Sensations][KoM]]-cd2.avi.007
http://www.easy-share.com/1906761858/Screw My Girlfriend.While I Watch[New Sensations][KoM]]-cd2.avi.008






  Reply With Quote

New Latest Movies Release Dvd Rip Mega Thread Daily Update

Free Porn Forums