intporn.com forums
View Single Post
Old 07-20-2009, 11:26 AM  
King Of Movie
Guest
 
Posts: n/a
Default Miami Spice | Muffia | DVDrip | 1CD | Release 20.07.2009




Miami Spice | Muffia | DVDrip | 1CD | Release 20.07.2009























Quote:


.. K i n g o f M o v i e .. P r a u d l e y p r e g a n t s ..
General
Complete name : C: Miami Spice-Muffia-Reldate-19.07.2009 [KoM]].avi
Format : AVI
Format/Info : Audio Video Interleave
File size : 701 MiB
Duration : 1h 4mn
Overall bit rate : 1 527 Kbps
Writing application : Nandub v1.0rc2
Writing library : Nandub build 1852/release

Video
ID : 0
Format : MPEG-4 Visual
Format profile : Advanced Simple@L5
Format settings, BVOP : Yes
Format settings, QPel : No
Format settings, GMC : No warppoints
Format settings, Matrix : Default (H.263)
Muxing mode : Packed bitstream
Codec ID : XVID
Codec ID/Hint : XviD
Duration : 1h 4mn
Bit rate : 1 352 Kbps
Width : 640 pixels
Height : 352 pixels
Display aspect ratio : 16/9
Frame rate : 23.976 fps
Resolution : 24 bits
Colorimetry : 4:2:0
Scan type : Progressive
Bits/(Pixel*Frame) : 0.250
Stream size : 621 MiB (89%)
Writing library : XviD 1.2.1 (UTC 2008-12-04)

Audio
ID : 1
Format : MPEG Audio
Format version : Version 1
Format profile : Layer 3
Codec ID : 55
Codec ID/Hint : MP3
Duration : 1h 4mn
Bit rate mode : Variable
Bit rate : 162 Kbps
Nominal bit rate : 160 Kbps
Channel(s) : 2 channels
Sampling rate : 48.0 KHz
Resolution : 16 bits
Stream size : 74.6 MiB (11%)
Alignment : Aligned on interleaves
Interleave, duration : 24 ms (0.58 video frame)
Interleave, preload duration : 108 ms
Writing library : LAME3.90.
Encoding settings : -m j -V 4 -q 2 -lowpass 18 --abr 160






Code:


http://www.easy-share.com/1906823149/Miami Spice-Muffia-Reldate-19.07.2009 [KoM]].avi.001
http://www.easy-share.com/1906823152/Miami Spice-Muffia-Reldate-19.07.2009 [KoM]].avi.002
http://www.easy-share.com/1906823162/Miami Spice-Muffia-Reldate-19.07.2009 [KoM]].avi.003
http://www.easy-share.com/1906823233/Miami Spice-Muffia-Reldate-19.07.2009 [KoM]].avi.004
http://www.easy-share.com/1906823242/Miami Spice-Muffia-Reldate-19.07.2009 [KoM]].avi.005
http://www.easy-share.com/1906823250/Miami Spice-Muffia-Reldate-19.07.2009 [KoM]].avi.006
http://www.easy-share.com/1906823253/Miami Spice-Muffia-Reldate-19.07.2009 [KoM]].avi.007
http://www.easy-share.com/1906823258/Miami Spice-Muffia-Reldate-19.07.2009 [KoM]].avi.008
  Reply With Quote

New Latest Movies Release Dvd Rip Mega Thread Daily Update

Free Porn Forums