intporn.com forums
View Single Post
Old 07-20-2009, 02:24 PM  
King Of Movie
Guest
 
Posts: n/a
Default Secret Diary Of A Secretary | Penthouse | DVDrip | 2CD | Release 20.07.2009




Secret Diary Of A Secretary | Penthouse | DVDrip | 2CD | Release 20.07.2009


















.














Quote:


.. K i n g o f M o v i e .. P r a u d l e y p r e g a n t s ..






She's Great At Dick-Tation

Jenna Presley
Lexi Belle
Kylee Reese
Kagney Linn Karter
Alanah Rae
Randy Spears
Marco Banderas
Marcus London
Kris Slater
Danny Mountain
Tommy Gunn (II)
James Avalon Director


CD | 1

General
Complete name : C: Secret Diary Of A Secretary.Penthouse.Rel.20.7.09 [KoM] CD 1.avi
Format : AVI
Format/Info : Audio Video Interleave
File size : 699 MiB
Duration : 47mn 25s
Overall bit rate : 2 062 Kbps
Writing application : VirtualDubMod 1.5.4.1 (build 2178/release)
Writing library : VirtualDubMod build 2178/release

Video
ID : 0
Format : MPEG-4 Visual
Format profile : Simple@L3
Format settings, BVOP : No
Format settings, QPel : No
Format settings, GMC : No warppoints
Format settings, Matrix : Default (H.263)
Codec ID : XVID
Codec ID/Hint : XviD
Duration : 47mn 25s
Bit rate : 1 939 Kbps
Width : 640 pixels
Height : 368 pixels
Display aspect ratio : 16/9
Frame rate : 29.970 fps
Resolution : 24 bits
Colorimetry : 4:2:0
Scan type : Progressive
Bits/(Pixel*Frame) : 0.275
Stream size : 658 MiB (94%)
Writing library : XviD 1.2.0.dev47 (UTC 2006-11-01)

Audio
ID : 1
Format : MPEG Audio
Format version : Version 1
Format profile : Layer 3
Codec ID : 55
Codec ID/Hint : MP3
Duration : 47mn 25s
Bit rate mode : Variable
Bit rate : 109 Kbps
Nominal bit rate : 128 Kbps
Channel(s) : 2 channels
Sampling rate : 48.0 KHz
Resolution : 16 bits
Stream size : 37.0 MiB (5%)
Alignment : Aligned on interleaves
Interleave, duration : 24 ms (0.72 video frame)
Interleave, preload duration : 330 ms
Writing library : LAME3.97
Encoding settings : -m j -V 4 -q 2 -lowpass 17 --abr 128

CD | 2

General
Complete name : C: Secret Diary Of A Secretary.Penthouse.Rel.20.7.09 [KoM] CD 2.avi
Format : AVI
Format/Info : Audio Video Interleave
File size : 699 MiB
Duration : 54mn 13s
Overall bit rate : 1 803 Kbps
Writing application : VirtualDubMod 1.5.4.1 (build 2178/release)
Writing library : VirtualDubMod build 2178/release

Video
ID : 0
Format : MPEG-4 Visual
Format profile : Simple@L3
Format settings, BVOP : No
Format settings, QPel : No
Format settings, GMC : No warppoints
Format settings, Matrix : Default (H.263)
Codec ID : XVID
Codec ID/Hint : XviD
Duration : 54mn 13s
Bit rate : 1 680 Kbps
Width : 640 pixels
Height : 368 pixels
Display aspect ratio : 16/9
Frame rate : 29.970 fps
Resolution : 24 bits
Colorimetry : 4:2:0
Scan type : Progressive
Bits/(Pixel*Frame) : 0.238
Stream size : 652 MiB (93%)
Writing library : XviD 1.2.0.dev47 (UTC 2006-11-01)

Audio
ID : 1
Format : MPEG Audio
Format version : Version 1
Format profile : Layer 3
Codec ID : 55
Codec ID/Hint : MP3
Duration : 54mn 2s
Bit rate mode : Variable
Bit rate : 109 Kbps
Channel(s) : 2 channels
Sampling rate : 48.0 KHz
Resolution : 16 bits
Stream size : 42.4 MiB (6%)
Alignment : Aligned on interleaves
Interleave, duration : 24 ms (0.72 video frame)
Interleave, preload duration : 481 ms










Code:

CD | 1 

http://www.easy-share.com/1906834319/Secret Diary Of A Secretary.Penthouse.Rel.20.7.09 [KoM] CD 1.avi.002
http://www.easy-share.com/1906834320/Secret Diary Of A Secretary.Penthouse.Rel.20.7.09 [KoM] CD 1.avi.001
http://www.easy-share.com/1906834322/Secret Diary Of A Secretary.Penthouse.Rel.20.7.09 [KoM] CD 1.avi.004
http://www.easy-share.com/1906834323/Secret Diary Of A Secretary.Penthouse.Rel.20.7.09 [KoM] CD 1.avi.003
http://www.easy-share.com/1906834329/Secret Diary Of A Secretary.Penthouse.Rel.20.7.09 [KoM] CD 1.avi.006
http://www.easy-share.com/1906834328/Secret Diary Of A Secretary.Penthouse.Rel.20.7.09 [KoM] CD 1.avi.005
http://www.easy-share.com/1906834330/Secret Diary Of A Secretary.Penthouse.Rel.20.7.09 [KoM] CD 1.avi.008
http://www.easy-share.com/1906834333/Secret Diary Of A Secretary.Penthouse.Rel.20.7.09 [KoM] CD 1.avi.007


CD | 2

http://www.easy-share.com/1906834335/Secret Diary Of A Secretary.Penthouse.Rel.20.7.09 [KoM] CD 2.avi.001
http://www.easy-share.com/1906834336/Secret Diary Of A Secretary.Penthouse.Rel.20.7.09 [KoM] CD 2.avi.002
http://www.easy-share.com/1906834337/Secret Diary Of A Secretary.Penthouse.Rel.20.7.09 [KoM] CD 2.avi.003
http://www.easy-share.com/1906834340/Secret Diary Of A Secretary.Penthouse.Rel.20.7.09 [KoM] CD 2.avi.004
http://www.easy-share.com/1906834344/Secret Diary Of A Secretary.Penthouse.Rel.20.7.09 [KoM] CD 2.avi.006
http://www.easy-share.com/1906834342/Secret Diary Of A Secretary.Penthouse.Rel.20.7.09 [KoM] CD 2.avi.005
http://www.easy-share.com/1906834345/Secret Diary Of A Secretary.Penthouse.Rel.20.7.09 [KoM] CD 2.avi.008
http://www.easy-share.com/1906834348/Secret Diary Of A Secretary.Penthouse.Rel.20.7.09 [KoM] CD 2.avi.007


  Reply With Quote

Secret Diary Of A Secretary | Penthouse | DVDrip | 2CD | Release 20.07.2009

Free Porn Forums