intporn.com forums
View Single Post
Old 07-20-2009, 02:29 PM  
King Of Movie
Guest
 
Posts: n/a
Default Hannas House | ViviD | DVDrip | 2CD | Release 20.07.2009




Hannas House | ViviD | DVDrip | 2CD | Release 20.07.2009





















Quote:


.. K i n g o f M o v i e .. P r a u d l e y p r e g a n t s ..


B. Skow followed Hanna around her house for a few days and shot everything in sight. Well, here's what we know: She has sex every morning with her man, and

it's raunchy, uninhibited and totally wild. She has beautiful, natural d-cups and an ass sculpted by gods. At around noon, she has friends over, and the sex

pretty much continues all day. Meggan Mallone, Alyssa Hall, Rayveness, you name it...they all come over and they never stop coming. This is reality sex at

it's finest, with the finest natural beauties in porn. If you like your sex real and raw, B. Skow delivers...and Hanna's House is the place.

Hanna Hilton
Rayveness
Alyssa Hall
Meggan Mallone
Chris Johnson
Rocco Reed
B. Skow Director



CD | 1


General
Complete name : C: Hannas House.Hanna Hilton ViviD.REL dATE.20.07.09 [KoM] CD 1.avi
Format : AVI
Format/Info : Audio Video Interleave
File size : 700 MiB
Duration : 1h 27mn
Overall bit rate : 1 120 Kbps
Writing application : VirtualDubMod 1.5.4.1 (build 2178/release)
Writing library : VirtualDubMod build 2178/release

Video
ID : 0
Format : MPEG-4 Visual
Format profile : Advanced Simple@L5
Format settings, BVOP : Yes
Format settings, QPel : No
Format settings, GMC : No warppoints
Format settings, Matrix : Default (H.263)
Muxing mode : Packed bitstream
Codec ID : XVID
Codec ID/Hint : XviD
Duration : 1h 27mn
Bit rate : 992 Kbps
Width : 576 pixels
Height : 320 pixels
Display aspect ratio : 16/9
Frame rate : 29.970 fps
Resolution : 24 bits
Colorimetry : 4:2:0
Scan type : Progressive
Bits/(Pixel*Frame) : 0.180
Stream size : 620 MiB (89%)
Writing library : XviD 1.2.0.dev47 (UTC 2006-11-01)

Audio
ID : 1
Format : MPEG Audio
Format version : Version 1
Format profile : Layer 3
Codec ID : 55
Codec ID/Hint : MP3
Duration : 1h 27mn
Bit rate mode : Variable
Bit rate : 115 Kbps
Nominal bit rate : 128 Kbps
Channel(s) : 2 channels
Sampling rate : 48.0 KHz
Resolution : 16 bits
Stream size : 71.4 MiB (10%)
Alignment : Aligned on interleaves
Interleave, duration : 24 ms (0.72 video frame)
Interleave, preload duration : 253 ms
Writing library : LAME3.97
Encoding settings : -m j -V 4 -q 2 -lowpass 17 --abr 128


CD | 2


General
Complete name : C: Hannas House.Hanna Hilton ViviD.REL dATE.20.07.09 [KoM] CD 2.avi
Format : AVI
Format/Info : Audio Video Interleave
File size : 699 MiB
Duration : 1h 17mn
Overall bit rate : 1 258 Kbps
Writing application : VirtualDubMod 1.5.4.1 (build 2178/release)
Writing library : VirtualDubMod build 2178/release

Video
ID : 0
Format : MPEG-4 Visual
Format profile : Advanced Simple@L5
Format settings, BVOP : Yes
Format settings, QPel : No
Format settings, GMC : No warppoints
Format settings, Matrix : Default (H.263)
Muxing mode : Packed bitstream
Codec ID : XVID
Codec ID/Hint : XviD
Duration : 1h 17mn
Bit rate : 1 128 Kbps
Width : 576 pixels
Height : 320 pixels
Display aspect ratio : 16/9
Frame rate : 29.970 fps
Resolution : 24 bits
Colorimetry : 4:2:0
Scan type : Progressive
Bits/(Pixel*Frame) : 0.204
Stream size : 627 MiB (90%)
Writing library : XviD 1.2.0.dev47 (UTC 2006-11-01)

Audio
ID : 1
Format : MPEG Audio
Format version : Version 1
Format profile : Layer 3
Codec ID : 55
Codec ID/Hint : MP3
Duration : 1h 17mn
Bit rate mode : Variable
Bit rate : 115 Kbps
Channel(s) : 2 channels
Sampling rate : 48.0 KHz
Resolution : 16 bits
Stream size : 64.2 MiB (9%)
Alignment : Aligned on interleaves
Interleave, duration : 24 ms (0.72 video frame)
Interleave, preload duration : 497 ms






Code:



CD | 1 

http://www.easy-share.com/1906834102/Hannas House.Hanna Hilton ViviD.REL dATE.20.07.09 [KoM] CD 1.avi.001
http://www.easy-share.com/1906834103/Hannas House.Hanna Hilton ViviD.REL dATE.20.07.09 [KoM] CD 1.avi.002
http://www.easy-share.com/1906834107/Hannas House.Hanna Hilton ViviD.REL dATE.20.07.09 [KoM] CD 1.avi.003
http://www.easy-share.com/1906834108/Hannas House.Hanna Hilton ViviD.REL dATE.20.07.09 [KoM] CD 1.avi.004
http://www.easy-share.com/1906834030/Hannas House.Hanna Hilton ViviD.REL dATE.20.07.09 [KoM] CD 1.avi.005
http://www.easy-share.com/1906834032/Hannas House.Hanna Hilton ViviD.REL dATE.20.07.09 [KoM] CD 1.avi.006
http://www.easy-share.com/1906834114/Hannas House.Hanna Hilton ViviD.REL dATE.20.07.09 [KoM] CD 1.avi.007
http://www.easy-share.com/1906834037/Hannas House.Hanna Hilton ViviD.REL dATE.20.07.09 [KoM] CD 1.avi.008

Cd | 2

http://www.easy-share.com/1906834053/Hannas House.Hanna Hilton ViviD.REL dATE.20.07.09 [KoM] CD 2.avi.001
http://www.easy-share.com/1906834115/Hannas House.Hanna Hilton ViviD.REL dATE.20.07.09 [KoM] CD 2.avi.002
http://www.easy-share.com/1906834117/Hannas House.Hanna Hilton ViviD.REL dATE.20.07.09 [KoM] CD 2.avi.003
http://www.easy-share.com/1906834077/Hannas House.Hanna Hilton ViviD.REL dATE.20.07.09 [KoM] CD 2.avi.004
http://www.easy-share.com/1906834083/Hannas House.Hanna Hilton ViviD.REL dATE.20.07.09 [KoM] CD 2.avi.005
http://www.easy-share.com/1906834087/Hannas House.Hanna Hilton ViviD.REL dATE.20.07.09 [KoM] CD 2.avi.006
http://www.easy-share.com/1906834090/Hannas House.Hanna Hilton ViviD.REL dATE.20.07.09 [KoM] CD 2.avi.007
http://www.easy-share.com/1906834093/Hannas House.Hanna Hilton ViviD.REL dATE.20.07.09 [KoM] CD 2.avi.008
  Reply With Quote

Hannas House | ViviD | DVDrip | 2CD | Release 20.07.2009

Free Porn Forums