intporn.com forums
View Single Post
Old 07-20-2009, 02:42 PM  
King Of Movie
Guest
 
Posts: n/a
Default Naughty Cheerleaders Club.3 | New Sensations | DVDrip | 2CD | Release 20.07.2009




Naughty Cheerleaders Club.3 | New Sensations | DVDrip | 2CD | Release 20.07.2009






























Quote:


.. K i n g o f M o v i e .. P r a u d l e y p r e g a n t s ..





These girls aren't just the sidelines, they're the main event! So cum and have some fun with this episode's horny squad that includes Amia Miley, Lindy Lane, Allyssa Hall, Summer Silver, and Natalie Norton. They're ready to hit the bleachers and rub their pom-poms all over a throbbing rod. And with over 2 hours and 20 minutes of naughty cheerleader fun, your cock will definitely be rocked all night long!

Alyssa Hall - (bio)
Natalie Norton - (bio)
Lindy Lane - (bio)
Summer Silver
Addison Cain
Amia Miley
James Deen
Michael Stefano
Alex Gonz
Anthony Rosano
Joey Brass



CD | 1

General
Complete name : C: Naughty Cheerleaders Club.3.New Sensations.Rel.20.7.09 [KoM] CD1.avi
Format : AVI
Format/Info : Audio Video Interleave
File size : 700 MiB
Duration : 1h 10mn
Overall bit rate : 1 381 Kbps
Writing application : VirtualDubMod 1.5.10.2 (build 2540/release)
Writing library : VirtualDubMod build 2540/release

Video
ID : 0
Format : MPEG-4 Visual
Format profile : Advanced Simple@L5
Format settings, BVOP : Yes
Format settings, QPel : No
Format settings, GMC : No warppoints
Format settings, Matrix : Default (H.263)
Muxing mode : Packed bitstream
Codec ID : XVID
Codec ID/Hint : XviD
Duration : 1h 10mn
Bit rate : 1 234 Kbps
Width : 576 pixels
Height : 320 pixels
Display aspect ratio : 16/9
Frame rate : 29.970 fps
Resolution : 24 bits
Colorimetry : 4:2:0
Scan type : Progressive
Bits/(Pixel*Frame) : 0.223
Stream size : 625 MiB (89%)
Writing library : XviD 1.0.3 (UTC 2004-12-20)

Audio
ID : 1
Format : MPEG Audio
Format version : Version 1
Format profile : Layer 3
Codec ID : 55
Codec ID/Hint : MP3
Duration : 1h 10mn
Bit rate mode : Variable
Bit rate : 134 Kbps
Nominal bit rate : 128 Kbps
Channel(s) : 2 channels
Sampling rate : 48.0 KHz
Resolution : 16 bits
Stream size : 67.5 MiB (10%)
Alignment : Aligned on interleaves
Interleave, duration : 24 ms (0.72 video frame)
Interleave, preload duration : 137 ms
Writing library : LAME3.90.
Encoding settings : -m j -V 4 -q 2 -lowpass 17.6 --abr 128

CD | 2



General

Complete name : C: Naughty Cheerleaders Club.3.New Sensations.Rel.20.7.09 [KoM] CD2.avi
Format : AVI
Format/Info : Audio Video Interleave
File size : 698 MiB
Duration : 1h 9mn
Overall bit rate : 1 408 Kbps
Writing application : VirtualDubMod 1.5.10.2 (build 2540/release)
Writing library : VirtualDubMod build 2540/release

Video
ID : 0
Format : MPEG-4 Visual
Format profile : Advanced Simple@L5
Format settings, BVOP : Yes
Format settings, QPel : No
Format settings, GMC : No warppoints
Format settings, Matrix : Default (H.263)
Muxing mode : Packed bitstream
Codec ID : XVID
Codec ID/Hint : XviD
Duration : 1h 9mn
Bit rate : 1 260 Kbps
Width : 576 pixels
Height : 320 pixels
Display aspect ratio : 16/9
Frame rate : 29.970 fps
Resolution : 24 bits
Colorimetry : 4:2:0
Scan type : Progressive
Bits/(Pixel*Frame) : 0.228
Stream size : 625 MiB (89%)
Writing library : XviD 1.0.3 (UTC 2004-12-20)

Audio
ID : 1
Format : MPEG Audio
Format version : Version 1
Format profile : Layer 3
Codec ID : 55
Codec ID/Hint : MP3
Duration : 1h 9mn
Bit rate mode : Variable
Bit rate : 134 Kbps
Channel(s) : 2 channels
Sampling rate : 48.0 KHz
Resolution : 16 bits
Stream size : 66.5 MiB (10%)
Alignment : Aligned on interleaves
Interleave, duration : 24 ms (0.72 video frame)
Interleave, preload duration : 507 ms










Code:
CD | 1

http://www.easy-share.com/1906834184/Naughty Cheerleaders Club.3.New Sensations.Rel.20.7.09 [KoM] CD1.avi.002
http://www.easy-share.com/1906834183/Naughty Cheerleaders Club.3.New Sensations.Rel.20.7.09 [KoM] CD1.avi.001
http://www.easy-share.com/1906834189/Naughty Cheerleaders Club.3.New Sensations.Rel.20.7.09 [KoM] CD1.avi.004
http://www.easy-share.com/1906834188/Naughty Cheerleaders Club.3.New Sensations.Rel.20.7.09 [KoM] CD1.avi.003
http://www.easy-share.com/1906834197/Naughty Cheerleaders Club.3.New Sensations.Rel.20.7.09 [KoM] CD1.avi.006
http://www.easy-share.com/1906834196/Naughty Cheerleaders Club.3.New Sensations.Rel.20.7.09 [KoM] CD1.avi.005
http://www.easy-share.com/1906834203/Naughty Cheerleaders Club.3.New Sensations.Rel.20.7.09 [KoM] CD1.avi.007
http://www.easy-share.com/1906834201/Naughty Cheerleaders Club.3.New Sensations.Rel.20.7.09 [KoM] CD1.avi.008


CD | 2

http://www.easy-share.com/1906834206/Naughty Cheerleaders Club.3.New Sensations.Rel.20.7.09 [KoM] CD2.avi.001 
http://www.easy-share.com/1906834209/Naughty Cheerleaders Club.3.New Sensations.Rel.20.7.09 [KoM] CD2.avi.002
http://www.easy-share.com/1906834215/Naughty Cheerleaders Club.3.New Sensations.Rel.20.7.09 [KoM] CD2.avi.003
http://www.easy-share.com/1906834217/Naughty Cheerleaders Club.3.New Sensations.Rel.20.7.09 [KoM] CD2.avi.004
http://www.easy-share.com/1906834218/Naughty Cheerleaders Club.3.New Sensations.Rel.20.7.09 [KoM] CD2.avi.005
http://www.easy-share.com/1906834222/Naughty Cheerleaders Club.3.New Sensations.Rel.20.7.09 [KoM] CD2.avi.006
http://www.easy-share.com/1906834223/Naughty Cheerleaders Club.3.New Sensations.Rel.20.7.09 [KoM] CD2.avi.007
http://www.easy-share.com/1906834227/Naughty Cheerleaders Club.3.New Sensations.Rel.20.7.09 [KoM] CD2.avi.008
  Reply With Quote

New Latest Movies Release Dvd Rip Mega Thread Daily Update

Free Porn Forums