intporn.com forums

Go Back   intporn.com - free porn forums > Adult Movies > XXX Movie Clips & Video Scenes > HD Vids

Watch Free Porn Videos - Download HD Porn Videos - Free Sex Cam Chat


Ashley Fires - Ass On Fire [1080p/720p.h264]

Reply
 
Thread Tools
Old 05-04-2012, 09:58 PM   #1
Proud Member
 
Join Date: Mar 2010
Posts: 495
Default Ashley Fires - Ass On Fire [1080p/720p.h264]



Ashley Fires - Ass On Fire [1080p/720p.h264]

Real Screenshots








Report MediaInfo
Quote:
General
Complete name : C:\Users\daymon64\Desktop\Ashley Fires in Ass On Fire [1080p.h264].mp4
Format : MPEG-4
Format profile : Base Media
Codec ID : isom
File size : 3.10 GiB
Duration : 35mn 5s
Overall bit rate : 12.6 Mbps
Writing application : Lavf54.1.100

Video
ID : 1
Format : AVC
Format/Info : Advanced Video Codec
Format profile : High@L4.1
Format settings, CABAC : Yes
Format settings, ReFrames : 5 frames
Format settings, GOP : M=2, N=54
Codec ID : avc1
Codec ID/Info : Advanced Video Coding
Duration : 35mn 5s
Bit rate : 12.0 Mbps
Width : 1 920 pixels
Height : 1 080 pixels
Display aspect ratio : 16:9
Frame rate mode : Constant
Frame rate : 29.970 fps
Color space : YUV
Chroma subsampling : 4:2:0
Bit depth : 8 bits
Scan type : Progressive
Bits/(Pixel*Frame) : 0.193
Stream size : 2.94 GiB (95%)
Writing library : x264 core 120 r2146 bcd41db
Encoding settings : cabac=1 / ref=5 / deblock=1:0:0 / analyse=0x3:0x113 / me=umh / subme=8 / psy=1 / psy_rd=1.00:0.00 / mixed_ref=1 / me_range=16 / chroma_me=1 / trellis=1 / 8x8dct=1 / cqm=0 / deadzone=21,11 / fast_pskip=1 / chroma_qp_offset=-2 / threads=36 / sliced_threads=0 / nr=0 / decimate=1 / interlaced=0 / bluray_compat=0 / constrained_intra=0 / bframes=3 / b_pyramid=2 / b_adapt=2 / b_bias=0 / direct=3 / weightb=1 / open_gop=0 / weightp=2 / keyint=60 / keyint_min=6 / scenecut=40 / intra_refresh=0 / rc_lookahead=50 / rc=abr / mbtree=1 / bitrate=12000 / ratetol=1.0 / qcomp=0.60 / qpmin=0 / qpmax=69 / qpstep=4 / ip_ratio=1.40 / aq=1:1.00
Tagged date : UTC 2012-04-21 14:23:00

Audio
ID : 2
Format : AAC
Format/Info : Advanced Audio Codec
Format profile : LC
Codec ID : 40
Duration : 35mn 5s
Bit rate mode : Constant
Bit rate : 128 Kbps
Channel(s) : 2 channels
Channel positions : Front: L R
Sampling rate : 48.0 KHz
Compression mode : Lossy
Stream size : 32.1 MiB (1%)
Tagged date : UTC 2012-04-21 14:23:00
My Blogs: hardfactor.blogspot|com


Downloads




1080p
AF-iAOF[1080p.h264]_hardfactor.blogspot

720p
AF-iAOF[720p.h264]_hardfactor.blogspot



daymon64 is offline   Reply With Quote
Reply

Tags
1080p, 1080p or720ph264, 720p, anal, ashley, ashley fires, ass, blonde, fire, fires
Thread Tools


Similar Threads
Thread Thread Starter Forum Replies Last Post
Ashley Fires -Bra$$ers- Two Cocks On Fire [1080p/720p.h264] daymon64 HD Vids 0 09-14-2012 10:23 PM
Ashley Fires - Ass On Fire kremi1 XXX Movie Clips & Video Scenes 0 05-05-2012 12:28 PM
Ashley Fires Ass On Fire lywat XXX Movie Clips & Video Scenes 0 05-05-2012 01:42 AM
BigWetButts 12 05 04 Ashley Fires Ass On Fire XXX 1080p MP4-KTR seraph2686 HD Vids 0 05-04-2012 11:04 AM
Ashley Fires - BRA$$ERS - Burglarize My Butt [1080p.h264] daymon64 HD Vids 0 02-05-2012 07:20 PM


All times are GMT. The time now is 10:09 PM.


Popular Free Porn Forums:
XXX Movie Clips | Video Mega Threads | Amateur Videos | Full Movies | Hardcore Pictures

Get 10.99 Free Credits!

www.intporn.com

None of the pictures or videos posted to this forum are hosted by our servers or transmitted by our network. The files are typically downloaded from free hosting services like Keep2Share.cc (k2c.cc), Rapidgator.net (rg.to) and Terafile.co. DMCA. 2257.