intporn.com forums

Go Back   intporn.com - free porn forums > Test Area > Recycle Bin

Watch Free Porn Videos - Download HD Porn Videos - Free Sex Cam Chat


3D Half - SBS Full Movies - Hustler Seri - Erotik Seri

Reply
 
Thread Tools
Old 05-07-2013, 01:25 AM   #1
Proud Member
 
Angelaj's Avatar
 
Join Date: Jun 2012
Posts: 385
Default 3D Half - SBS Full Movies - Hustler Seri - Erotik Seri

This Ain't Conan the Barbarian 3D Hal SBS 1080.H264
AŞIRI DERECE EROTİKTİR
LETİTBİT TEK LİNK İNDİR
TURBOBİT TEK LİNK İNDİR
http://turbobit.net/download/folder/1439559



Busty Beauties. Car Wash 3D 2013 Half SBS 1080p

rar klosoru içersindekı txt yi muhakkak okumalısınız..



LETİTBİT TEK LİNK İNDİR


TURBOBİT TEK LİNK İNDİR

http://turbobit.net/download/folder/1440457


This Ain't The Expendables XXX 3D Half SBS
aşırı derecede erotikdir...
Geçen paylaşımda sunucagımızı söyledıgımız This aint 3d pirhana filminde sorun oldugu ıcın paylaşamadık bu durum için özür dileriz
LETİTBİT İNDİR
AŞIRI DERECEDE EROTİKTİR ÇÜZÜNÜRLÜK 720P DİR..
LETİTBİT TEK LİNK İNDİR
JUNOCLOUD TEK LİNK İNDİR
ŞİFRESİZİDİR




AŞIRI DERECEDE EROTİKİR
Performers: Adriana Sephora, Billy Glide, Brad Tyler, Chris Johnson, Kelly Hellfire, Mia Lelani, Rachel Roxxx, Victoria Lawson, Yurizan Beltran

This Ain't Avatar xxx 3D 2 (Blu-Ray): Take a journey back to the magical world of Pandwhora, and enjoy a new sexy adventure full of hot blue creatures in Hustlers long-awaited sequel to the most successful adult 3-D movie ever!
LETİTBİT TEK LİNK İNDİR
This Ain’t The Smurfs XXX 3D
LETİTBİT TEK LİNK İNDİR
Angelaj is offline   Reply With Quote
Old 05-07-2013, 01:47 PM   #2
Proud Member
 
Angelaj's Avatar
 
Join Date: Jun 2012
Posts: 385
Default Re: 3D Half - SBS Full Movies - Hustler Seri - Erotik Seri

AŞIRI DERECEDE EROTİKTİR ÇÜZÜNÜRLÜK 720P DİR..
LETİTBİT TEK LİNK İNDİR





Angelaj is offline   Reply With Quote
Old 05-08-2013, 06:00 PM   #3
Proud Member
 
Angelaj's Avatar
 
Join Date: Jun 2012
Posts: 385
Default Re: 3D Half - SBS Full Movies - Hustler Seri - Erotik Seri

Die Bullen vom Fuschlsee 3D Half SBS 720p.x264


Video
ID : 1
Format : AVC
Format/Info : Advanced Video Codec
Format profile : High@L4.1
Format settings, CABAC : Yes
Format settings, ReFrames : 5 frames
Codec ID : V_MPEG4/ISO/AVC
Duration : 1h 43mn
Bit rate : 5 852 Kbps
Width : 1 280 pixels
Height : 720 pixels
Display aspect ratio : 16:9
Frame rate mode : Constant
Frame rate : 23.976 fps
Color space : YUV
Chroma subsampling : 4:2:0
Bit depth : 8 bits
Scan type : Progressive
Bits/(Pixel*Frame) : 0.265
Stream size : 4.15 GiB (95%)
Writing library : x264 core 118 r2085







LETİTBİT DOWNLOAD

http://letitbit.net/download/41849.4f9703ff47ddad22b067e70d01a6/Die_Bullen_vom_Fuschlsee_3D_2011_BDRip_halfSbS_720 p.mkv.html


SHAREFLARE DOWNLOAD

http://shareflare.net/download/40410..._720p.mkv.html

NO PASSWORD
Angelaj is offline   Reply With Quote
Old 05-08-2013, 09:50 PM   #4
Proud Member
 
Angelaj's Avatar
 
Join Date: Jun 2012
Posts: 385
Default Re: 3D Half - SBS Full Movies - Hustler Seri - Erotik Seri









.....::: LETİTBİT ::::......

http://letitbit.net/folder/31283821/14151383

Angelaj is offline   Reply With Quote
Old 05-09-2013, 12:08 AM   #5
Proud Member
 
Angelaj's Avatar
 
Join Date: Jun 2012
Posts: 385
Default Re: 3D Half - SBS Full Movies - Hustler Seri - Erotik Seri



Name: Super.striptiz.v.3D.belaya.versiya.2010.x264.BDRip .1080p.mkv
Downloads: 8
Size: 4.18 GB
AddTime: 639.5 days ago
Updated: 3.7 days ago
Files: 1
Fake: No







SHAREFLARE DOWNLOAD

http://shareflare.net/download/78925....stpr.rar.html

LETİTBİT DOWNLOAD

http://letitbit.net/folder/26993711/14184063

TURBOBİT DOWNLOAD

http://turbobit.net/download/folder/1441828

ŞİFRESİZDİR
Angelaj is offline   Reply With Quote
Old 05-09-2013, 09:35 PM   #7
Proud Member
 
Angelaj's Avatar
 
Join Date: Jun 2012
Posts: 385
Default Re: 3D Half - SBS Full Movies - Hustler Seri - Erotik Seri

Comblee par tous les trous 3D Half SBS 1080p.x264 Dorcel 3D



Video
ID : 2
Format : VC-1
Format profile : MP@HL
Codec ID : WMV3
Codec ID/Info : Windows Media Video 9
Codec ID/Hint : WMV3
Description of the codec : Windows Media Video 9 - Professional
Duration : 22mn 31s
Bit rate mode : Constant
Bit rate : 9 863 Kbps
Width : 1 920 pixels
Height : 1 080 pixels
Display aspect ratio : 16:9
Frame rate : 25.000 fps
Nominal frame rate : 30.000 fps
Bit depth : 8 bits
Scan type : Progressive
Compression mode : Lossy
Bits/(Pixel*Frame) : 0.190
Stream size : 1.55 GiB (99%)
Language : French








LETİTBİT DOWNLOAD

http://letitbit.net/download/48605.4...us_3D.wmv.html

SHAREFLARE DOWNLOAD

http://shareflare.net/download/44575...us_3D.wmv.html

NO PASSWORD
Angelaj is offline   Reply With Quote
Old 05-10-2013, 12:40 AM   #8
Proud Member
 
Angelaj's Avatar
 
Join Date: Jun 2012
Posts: 385
Default Re: 3D Half - SBS Full Movies - Hustler Seri - Erotik Seri

Eden Adams and Friends 3D- Half SBS (2012) 1080p



Genre: Erotic
Directed by: Kelly Holland
Starring: Eden Adams, Brooklyn Lee, Capri Cavalli, Melissa Jacobs, Nikki Benz
Issued: USA, Germany
Duration: 00:49:50
Quality: BDRip 1080p/MKV
Size: 3,17 GB







SHAREFLARE DOWNLOAD

http://u18434801.shareflare.net/down...0p.3D.mkv.html

LETİTBİT DOWNLOAD

http://letitbit.net/folder/26993711/14186123

TURBOBİT DOWNLOAD

http://turbobit.net/download/folder/1442216

NO PASSWORD
Angelaj is offline   Reply With Quote
Old 05-13-2013, 07:31 PM   #9
Proud Member
 
Angelaj's Avatar
 
Join Date: Jun 2012
Posts: 385
Default Re: 3D Half - SBS Full Movies - Hustler Seri - Erotik Seri



Pascha Table Dance 3D - 3D Half Ower Under 1080p.x264

10 GB tüm bölümler bir arada





LETİTBİT DOWNLOAD

http://letitbit.net/folder/31283821/14193803

TURBOBİT DOWNLOAD 6 parts

http://turbobit.net/download/folder/1443529

no password
Angelaj is offline   Reply With Quote
Old 05-15-2013, 12:18 PM   #10
Proud Member
 
Angelaj's Avatar
 
Join Date: Jun 2012
Posts: 385
Default Re: 3D Half - SBS Full Movies - Hustler Seri - Erotik Seri

3D Hi-Vision Collection 1 - 2011 - 3D Half SBS 1080p





3D Hi-Vision Collection 1 - 2011 - 3D Half SBS 1080p






LETİTBİT DOWNLOAD

http://letitbit.net/download/33302.3...11_3D.mkv.html

SHAREFLARE DOWNLOAD

http://shareflare.net/download/38875...11_3D.mkv.html
NO PASSWORD
Angelaj is offline   Reply With Quote
Reply

Tags
3d, erotik, full, half, hustler, movies, sbs, seri
Thread Tools


Similar Threads
Thread Thread Starter Forum Replies Last Post
3D Porn Movies Collection - Half SBS/SBS 1080p/720p 6BungaBunga9 XXX Video Mega Threads 42 02-09-2013 12:58 PM
XV551-What is the Mei Seri Teacher - Seri Mikami kenshinrule Recycle Bin 0 01-01-2012 12:30 PM
Seri Mikami - You Will Be Enchanted By That Pink File! Seri Mikami 2 - PDV-072 hotnet Asian / JAV Movies 0 11-07-2011 06:28 PM
PDV-072 - Seri Mikami - You Will Be Enchanted By That Pink File! Seri Mikami 2 Mnew Asian / JAV Movies 0 09-30-2011 08:52 PM


All times are GMT. The time now is 12:24 PM.


Popular Free Porn Forums:
XXX Movie Clips | Video Mega Threads | Amateur Videos | Full Movies | Hardcore Pictures

Get 10.99 Free Credits!

www.intporn.com

None of the pictures or videos posted to this forum are hosted by our servers or transmitted by our network. The files are typically downloaded from free hosting services like Keep2Share.cc (k2c.cc), Rapidgator.net (rg.to) and Terafile.co. DMCA. §2257.