intporn.com forums

Go Back   intporn.com - Free Porn Forums > >

Free video chat, live sex shows and webcam recordings for download Spice up your sex life, free 11 minutes with the hottest cam models! Free cam shows and recorded cam video downloads


3D anaglyph Stereoscopic Porn Movie Thread V.2.0


Reply
 
Thread Tools
Old 08-29-2010, 05:01 PM   #1
Spydus
Member
 
Join Date: Mar 2010
Posts: 52
Default 3D anaglyph Stereoscopic Porn Movie Thread V.2.0

biggest one 3D anaglyph Stereoscopic Porn Movie Thread V.2.0


Nvidia 3d vision + 120hz monitor / Anaglyph glasses / Cross-eye / Polarised
FileSonic / Share-Online / Netload.in / Rapidshare PS: FileSonic files all online
PW:spy or spy3d
3D These l?sbians' pussies are dripping wet



Länge: 18min
Bitrate: 13,5 Mbps
Format: VC-1
Größe: 1.80 GB

Megaupload
Download Megaupload 3D Lesbian 1080p

FileSonic
Download filesonic 3d-Lesbian.1080p
Netload.in
Download Netload 3D Lesbian
RAPIDSHARE
Download Rapidshare 3d-Lesbian

3D Two hot girls want to have fun



Duration: 20 minutes
Video: 1920x1080
Size: 2GB

FileSonic
Download filesonic 3D.Threesome.1080p

Netload.in
Download Netload 3D Threesome: new in 1080P

Share-Online
Download Share-Online 3D Threesome 1080p

Rapidshare
Download Rapidshare 3Dpr0n


Lenka seduces friend Thomas


Duration: 16.15 minutes
Video: 1920x1080
Size: 1635MB

FileSonic
Download filesonic Lenka_seduces_friend_Thomas.1080p

Netload.in
Download Netload 3dp-003-Lenka seduces friend Thomas.1080p
Share-Online
Links geschützt mit LinkSave.in
Rapidshare
Download Rapidshare 3dp-003-Lenka_seduces_friend_Thomas.1080

Summer date in free nature 3D


Duration: 14.37 minutes
Video: 1920x1080
Size: 1.4GB

FileSonic
Download filesonic Summer.date.in.free.nature.3D.1080p.Spy3d

Netload.in
Download Netload Summer.date.in.free.nature.3D.1080p.Spy3d
Share-Online
Download Share-Online Summer.date.in.free.nature.3D.1080p.Spy3d

RAPIDSHARE
Download Rapidshare Summer.date.in.free.nature.3D.1080p.Spy3d

3D couple in the kitchen



Duration: 25.55 minutes
Video: 1920x1080
Size: 2.48GB
Netload.in
Download Netload Pozvání na prohlídku nové kuchyne-1920x1080-spy3d
Share-Online
Download Share-Online Pozvání na prohlídku nové kuchyne-1920x1080-spy3d
RAPIDSHARE
Download Rapidshare video-005-1920x1080-cast

Surprised roommate anaglyph 3d



Duration: 21.29 minutes
Video: 1920x1080
Size: 2.2GB

FileSonic
Download filesonic Surprised.roommate.anaglyph.3d.1080p
Netload.in
Download Netload Surprised.roommate.anaglyph.3d
Share-Online
Download Share-Online Surprised.roommate.anaglyph.3d
Rapidshare
Download Rapidshare Surprised.roommate.anaglyph.3d

Hrátky s ovocem 3D



Duration: 19.59 minutes
Video: 1920x1080
Size: 2.1GB

FileSonic
Download filesonic Hrátky s ovocem 3D 1080p

Netload.in
Download Netload Hrátky s ovocem 3D.1080p
Share-Online
Download Share-Online Hrátky s ovocem 3D.1080p

Foot Fetish3D


Size: 2.4GB
Duration: 22:01
Resolution: 1920x1080
File Type: WMV
FileSonic
Download sharingmatrix Foot_Fetish-3D
Netload.in
Download Netload Foot_Fetish-3D
Share-Online
Download Share-Online Foot Fetish-3D

Rough Teacher Spanking Sexy Ass 3D

Size: 1.0GB
Duration: 10:29
Resolution: 1920x1080
File Type: WMV
FileSonic
Download sharingmatrix Rough Teacher Spanking Sexy Ass-3D
Netload.in
Download Netload Rough Teacher Spanking Sexy Ass-3D
Share-Online
Download Share-Online Rough Teacher Spanking Sexy Ass-3D

Sexy Jersey Double Nailed 3D

Size: 1.9GB
Duration: 17:58
Resolution: 1920x1080
File Type: WMV
Netload.in
Download Netload Sexy Jersey Double Nailed-3D
Share-Online
Download Share-Online Sexy Jersey Double Nailed-3D
FileSonic
Download sharingmatrix Sexy Jersey Double Nailed-3D

COKINETTE.Pack.Spy3D


Size: 3.41GB
Clips: 6
Netload.in
Download Netload COKINETTE.Pack.Spy3D
FileSonic
Download sharingmatrix.com COKINETTE.Pack.Spy3D
Share-Online
Download Share-Online COKINETTE.Pack.Spy3D

YoungThaiDuo.Pack.Spy3D


Netload.in
Download Netload YoungThaiDuo.Pack.Spy3D
FileSonic
Download filesonic YoungThaiDuo.Pack.Spy3D
Share-Online
Download Share-Online YoungThaiDuo.Pack.Spy3D

YELENA.Pack.spy3d


Size: 0.58 Gb
Clips: 3
Video size: 2560 x 720
Netload.in
Download Netload YELENA.Pack.spy3d

Melissa Lauren 3D DVD


DVD IMG 4.8 gb
RAR 3.8 GB
Netload.in
Download Netload Melissa Lauren 3D
Share-Online
Download Share-Online Melissa Lauren 3D

SexDrivers 3D


3.65Gb
DVD Img
anaglyph 3d
Netload.in
Download Netload Sex.DRIVER.3d
Share-Online
Download Share-Online Sex.DRIVER.3d
Rapidshare
Download Rapidshare SexDrivers 3D

Screw.My.Wife.Please.(3D).AnaglyphPorn


5 Clips /1.7gb
Code:
Format                           : MPEG-4 Visual
Format profile                   : Advanced Simple@L5
Format settings, BVOP            : Yes
Format settings, QPel            : No
Format settings, GMC             : No warppoints
Format settings, Matrix          : Custom
Codec ID                         : XVID
Codec ID/Hint                    : XviD
Duration                         : 14mn 57s
Bit rate                         : 3 071 Kbps
Width                            : 720 pixels
Height                           : 416 pixels
Display aspect ratio             : 16:9
Frame rate                       : 29.970 fps
Resolution                       : 8 bits
Colorimetry                      : 4:2:0
Scan type                        : Progressive
Bits/(Pixel*Frame)               : 0.342
Netload.in
Download Netload Screw.My.Wife.Please.(3D).AnaglyphPorn
Rapidshare
Download Rapidshare Screw.My.Wife.Please.(3D).AnaglyphPorn
Share-Online
Download Share-Online Screw.My.Wife.Please.(3D).AnaglyphPorn

Kamasutra.The.Secrets.Of.Lovers.Art.(3D).DVD9-ISO




Quote:
************************************************** *****************************
Kamasutra.The.Secrets.Of.Lovers.Art.(3D).DVD9
************************************************** *****************************
-------------------------------------------------------------------------------
General Information
-------------------------------------------------------------------------------
Type.................: Movie
Release Date.........: Oct, 2006
Language.............: English, French, Spanish, German
Duration.............: 75 Min
Original Format......: NTSC
Genre................: Documentary-XXX
Video Format.........: MPEG-PS
Compression Format...: RAR
Part Size............: 100,000,000 bytes
Number of Parts......: 74
File Validation......: SFV
-------------------------------------------------------------------------------
Video
-------------------------------------------------------------------------------
ID : 224 (0xE0)
Format : MPEG Video
Format version : Version 2
Format profile : Main@Main
Format settings, BVOP : Yes
Format settings, Matrix : Default
Format_Settings_GOP : M=3, N=13
Bit rate mode : Constant
Bit rate : 5 072 Kbps
Nominal bit rate : 5 200 Kbps
Width : 720 pixels
Height : 576 pixels
Display aspect ratio : 4:3
Frame rate : 25.000 fps
Standard : PAL
Resolution : 8 bits
Colorimetry : 4:2:0
Scan type : Interlaced
Scan order : Top Field First
Bits/(Pixel*Frame) : 0.489
Stream size : 827 MiB (81%)
-------------------------------------------------------------------------------
Audio
-------------------------------------------------------------------------------
ID : 128 (0x80)
Format : AC-3
Format/Info : Audio Coding 3
Bit rate mode : Constant
Bit rate : 192 Kbps
Channel(s) : 2 channels
Channel positions : Front: L R
Sampling rate : 48.0 KHz
Stream size : 31.3 MiB (3%)
-------------------------------------------------------------------------------
Release Notes
-------------------------------------------------------------------------------
The 50 Key Positions of the Kama Sutra in 3D (red-cyan glasses needed)
According to the Kama Sutra, amorous desire and sexual pleasures are
prerequisites to world harmony. The Kama Sutra, also called the Book of Love,
comes to us from India and values a form of eroticism that leads to spiritual
realization. It teaches that the goal of sexual union is not only pleasure, but
also mutual evolution. Each successful union should aim for double ecstasy, with
each partner trying to bring the other to orgasm as well as finding a way to
reach orgasm for him or herself.
The 50 most representative positions from the Kama Sutra have been chosen to
initiate you in this awakening to sexual pleasure and to bring you a step closer
to mastering your passions.
May be viewed in 3D (red-cyan glasses needed) or non 3D versions.
Also included is an optional narration
detailing the benefits of each featured postion.
Netload.in
Download Netload Kamasutra.The.Secrets.Of.Lovers.Art.(3D).DVD9-ISO
Share-Online
Download Share-Online Kamasutra.The.Secrets.Of.Lovers.Art.(3D).DVD9-ISO
Rapidshare
Download Rapidshare Kamasutra.The.Secrets.Of.Lovers.Art.(3D).DVD9-ISO

Viktoria.Sweet.Strip.Maturbation.And.Dildo.3D


Netload.in
Download Netload Viktoria.Sweet.Strip.Maturbation.And.Dildo.3D
Share-Online
Download Share-Online Viktoria.Sweet.Strip.Maturbation.And.Dildo.3D
FileSonic

Octopussy.A.XXX.Parody.3D.REPACK.XXX.DVDRip.XviD


Title : Octopussy 3-D: A XXX Parody
Release Date : 2010.04.13
Size : 1400MB (2CD)
Studio : New Sensations
Video Bitrate : 1939 kbps
Audio Bitrate : ac3 192 kbps
Resolution : 640 x 352
Runtime : 01:31:05
Featuring : Phoenix Marie, Danny Mountain, Audrey Bitoni, Aletta Ocean,
Priya Rai, Dylan Ryan
Category : Feature
Netload.in
Download Netload Octopussy.A.XXX.Parody.3D.REPACK.XXX.DVDRip.XviD
Share-Online
Download Share-Online Octopussy.A.XXX.Parody.3D.REPACK.XXX.DVDRip.XviD
FileSonic

Kareen.Pack.Spy3D


Size: 0.86GB
Clips: 3
2560/720
runtime 17.42min
Netload.in
Download Netload NEW Kareen.Pack.Spy3D
FileSonic
Download filesonic Kareen.Pack.Spy3D

Mai_Natsuki


1,65gb
5 clips
2048/576 HD
Pw: spy3d
Netload.in
Download Netload 3d-mai-shaving
Share-Online
Download Share-Online 3DW-087_Mai_Natsuki

3d-reika-sailor


4Clips
1280/480
PW:spy3d
Netload.in
Download Netload 3d-reika-sailor
Share-Online
Download Share-Online 3dw-001-reika-sailor

3dw-043-sanae-bikini2



1,65gb
5 clips
2048/576 HD
Pw: spy3d

Netload.in
Download Netload 3d-mai-shaving

BEDROOM CRIES
*********************************
Sexduction... a stripper falls for a bouncer and wins him for her own... with a noisy climax!
Starring:
Nikki Arizona - Brook Dunn - Patricia Kennedy - Lisa Rose
Sean Ryder - Michael J. Cox - Tom Chapman


DVD IMG
4,2GB
Rapidshare
Download Rapidshare BEDROOM CRIES 3D
Netload.in
Download Netload BedroomCries 3D
Share-Online
Download Share-Online BedroomCries_3D

Erotek Dimensions 3D
*********************************



Director:Nicholas Scot Writer:
Nicholas Scot (writer) Release Date:9 Jan 2002 Runtime:30 minLanguage:EnglishGenre:Adult / ShortCountry:USA Company:Outrageous Films
The story takes place in a Cyber Science DNA Laboratory in which a scientist conjures up, with the guidance of her computer, her own true-to-life sexual fantasies. The fantasy is displayed in front of her and played out by realistic holographic humanoids. While she is enjoying the action, the lab's Security Guard sneaks in to find some action with the overstimulated scientist.
DVD IMG
3.46GB
Rapidshare
Download Rapidshare Erotek Dimensions 3D
Netload.in
Download Netload Erotek_3D

KRISTINA.Pack.spy3d



7 Clips
1920/720
100mb parts
Size 1.39 gb
Netload.in
Download Netload KRISTINA.Pack.spy3d

COKINETTE. Pack2.spy3d


6 Clips
1920/720p
1.6Gb
FileSonic
Download ****************** COKINETTE. Pack2.spy3d
Netload.in
Download Netload COKINETTE. Pack2.spy3d
Share-Online
Download Share-Online COKINETTE.Pack2.spy3d

Last edited by Spydus; 11-11-2010 at 05:21 PM.
Spydus is offline   Reply With Quote
Old 10-18-2010, 03:05 PM   #2
Spydus
Member
 
Join Date: Mar 2010
Posts: 52
Default Re: 3D anaglyph Stereoscopic Porn Movie Thread V.2.0

3D Deborah Banks


Format : Media 1920x1080
FileSize/String : 1,58 GiB
Duration/String : 22min
FileSonic
Download filesonic 3d deborah banks
Netload.in
Download Netload 3D Deborah Banks

3D Inez Steffan


Format : Media 1920x1080
File size : 1,45 GiB
Duration : 20min
FileSonic
Download filesonic 3D Inez Steffan
Netload.in
Download Netload 3D Inez Steffan


3d Magda Johansen


Format : Media 1920x1080
File size : 1.72 GiB
Duration : 24mn 14s
FileSonic
Download filesonic 3d Magda_Johansen
Netload.in
Download Netload 3d Magda Johansen
Spydus is offline   Reply With Quote
Old 10-18-2010, 03:07 PM   #3
Spydus
Member
 
Join Date: Mar 2010
Posts: 52
Default Re: 3D anaglyph Stereoscopic Porn Movie Thread V.2.0

SuzieCarina-Pony-Pee_1080p-3D


Format : *Link Not Allowed**Link Not Allowed**Link Not Allowed**Link Not Allowed**Link Not Allowed**Link Not Allowed**Link Not Allowed* Media
File size : 343 MiB
Duration : 3mn 45s
Overall bit rate mode : Variable
Overall bit rate : 12.8 Mbps
Maximum Overall bit rate : 10.8 Mbps
Stereoscopic : Yes
StereoscopicLayout : DualStream
Duration : 3mn 45s
Bit rate mode : Variable
Bit rate : 6 291 Kbps
Width : 1 920 pixels
Height : 1 080 pixels

FileSonic
Download filesonic SuzieCarina.Pony.Pee.1080p.3D
Netload.in
Download Netload SuzieCarina-Pony-Pee_1080p-3D


3D Erin Wickham 1080p




FileSize/String : 1.73 GiB
Duration/String : 24mn 23s
OverallBitRate_Mode/String : Constant
OverallBitRate/String : 10.1 Mbps
OverallBitRate_Maximum/String : 10.2 Mbps
Encoded_Date : UTC 2010-06-20 03:17:23.494
Width/String : 1 920 pixels
Height/String : 1 080 pixels
DisplayAspectRatio/String : 16:9

FileSonic
Download filesonic 3D Erin Wickham

3d EsmeraldaThomas 1080p


File size : 1.49 GiB
Duration : 20mn 59s
Overall bit rate mode : Constant
Overall bit rate : 10.1 Mbps
Maximum Overall bit rate : 10.2 Mbps
Bit rate : 10 000 Kbps
Width : 1 920 pixels
Height : 1 080 pixels
Display aspect ratio : 16:9
FileSonic
Download filesonic 3d EsmeraldaThomas 1080p
Spydus is offline   Reply With Quote
Old 10-26-2010, 04:32 PM   #4
Spydus
Member
 
Join Date: Mar 2010
Posts: 52
Default Re: 3D anaglyph Stereoscopic Porn Movie Thread V.2.0

3D porn with Nataly
Big Titted Teen Masturbates under the Shower in 3D


INFO
Quote:
Format : Windows Media
File size : 1.03 GiB
Duration : 10mn 30s
Overall bit rate mode : Constant
Overall bit rate : 14.1 Mbps
Maximum Overall bit rate : 7 046 Kbps
Encoded date : UTC 2010-09-07 14:35:11.639
SfOriginalFPS : 250000
Stereoscopic : Yes
StereoscopicLayout : DualStream
Video #1
ID : 3
Format : VC-1
Format profile : MP@HL
Codec ID : WMV3
Codec ID/Info : Windows Media Video 9
Codec ID/Hint : WMV3
Description of the codec : Windows Media Video 9 - Professional
Duration : 10mn 30s
Bit rate mode : Constant
Bit rate : 6 991 Kbps
Width : 1 920 pixels
Height : 1 080 pixels
Display aspect ratio : 16:9
Frame rate : 25.000 fps
Bit depth : 8 bits
Scan type : Progressive
Bits/(Pixel*Frame) : 0.135
Stream size : 525 MiB (50%)
Video #2
ID : 2
Format : VC-1
Format profile : MP@HL
Codec ID : WMV3
Codec ID/Info : Windows Media Video 9
Codec ID/Hint : WMV3
Description of the codec : Windows Media Video 9 - Professional
Duration : 10mn 30s
Bit rate mode : Constant
Bit rate : 6 799 Kbps
Width : 1 920 pixels
Height : 1 080 pixels
Display aspect ratio : 16:9
Frame rate : 25.000 fps
Bit depth : 8 bits
Scan type : Progressive
Bits/(Pixel*Frame) : 0.131
Stream size : 511 MiB (48%)
Audio
ID : 1
Format : WMA
Format version : Version 2
Codec ID : 161
Codec ID/Info : Windows Media Audio
Description of the codec : Windows Media Audio 9.2 - 192 kbps, 48 kHz, stereo (A/V) 1-pass CBR
Duration : 10mn 30s
Bit rate mode : Constant
Bit rate : 192 Kbps
Channel(s) : 2 channels
Sampling rate : 48.0 KHz
Bit depth : 16 bits
Stream size : 14.4 MiB (1%)

Spydus is offline   Reply With Quote
Old 11-09-2010, 01:20 PM   #5
Spydus
Member
 
Join Date: Mar 2010
Posts: 52
Default Re: 3D anaglyph Stereoscopic Porn Movie Thread V.2.0

Adult4D x01-Sandra_1080p-3D


File size : 2.49 GiB
Duration : 27mn 57s
Bit rate mode : Variable
Bit rate : 6 291 Kbps
Width : 1 920 pixels
Height : 1 080 pixels
Display aspect ratio : 16:9
Frame rate : 23.976 fps
MegaUpload
Download Megaupload Adult4D x01-Sandra_1080p-3D

FileSonic
Download filesonic Adult4D x01-Sandra_1080p-3D
Spydus is offline   Reply With Quote
Old 11-12-2010, 11:38 AM   #6
Spydus
Member
 
Join Date: Mar 2010
Posts: 52
Default Re: 3D anaglyph Stereoscopic Porn Movie Thread V.2.0

Super Strip 3D White Edition Bluray ISO


INFO
Bluray ISO 23GB
55min.
german/ English
Dolby Digital 5.1
2D and 3D
Password: spy3d
FileSonic
Download filesonic Super Strip 3D White Edition Bluray ISO

Netload.in
Download Netload Super Strip 3D White Edition Bluray ISO

Last edited by Spydus; 11-13-2010 at 12:03 PM.
Spydus is offline   Reply With Quote
Old 11-16-2010, 01:53 PM   #7
Spydus
Member
 
Join Date: Mar 2010
Posts: 52
Default Re: 3D anaglyph Stereoscopic Porn Movie Thread V.2.0

This Ain't Avatar XXX SBS





Quote:
Format : BDAV
Format/Info : Blu-ray Video
File size : 8.47 GiB
Duration : 2h 8mn
Overall bit rate : 9 448 Kbps
Maximum Overall bit rate : 48.0 Mbps
Video
ID : 4113 (0x1011)
Menu ID : 1 (0x1)
Format : AVC
Format/Info : Advanced Video Codec
Format profile : High@L4.1
Format settings, CABAC : Yes
Format settings, ReFrames : 4 frames
Duration : 2h 8mn
Bit rate mode : Variable
Bit rate : 8 841 Kbps
Maximum bit rate : 35.0 Mbps
Width : 1 920 pixels
Height : 1 080 pixels
Display aspect ratio : 16:9
Frame rate : 29.970 fps
Standard : NTSC
Color space : YUV
Chroma subsampling : 4:2:0
Bit depth : 8 bits
Scan type : MBAFF
Bits/(Pixel*Frame) : 0.142
Stream size : 7.92 GiB (94%)
Color primaries : BT.709-5, BT.1361, IEC 61966-2-4, SMPTE RP177
Transfer characteristics : BT.709-5, BT.1361
Matrix coefficients : BT.709-5, BT.1361, IEC 61966-2-4 709, SMPTE RP177
Audio
ID : 4352 (0x1100)
Menu ID : 1 (0x1)
Format : AC-3
Format/Info : Audio Coding 3
Mode extension : CM (complete main)
Duration : 2h 8mn
Bit rate mode : Constant
Bit rate : 224 Kbps
Channel(s) : 2 channels
Channel positions : Front: L R
Sampling rate : 48.0 KHz
Bit depth : 16 bits
Stream size : 206 MiB (2%)



PW: spy3d

http://www.intporn.org/redir/fileson.../32943773/This Ain't Avatar XXX.part01.rar
http://www.intporn.org/redir/fileson.../32944749/This Ain't Avatar XXX.part02.rar
http://www.intporn.org/redir/fileson.../32945653/This Ain't Avatar XXX.part73.rar
http://www.intporn.org/redir/fileson.../32946943/This Ain't Avatar XXX.part74.rar
http://www.intporn.org/redir/fileson.../32947925/This Ain't Avatar XXX.part75.rar
http://www.intporn.org/redir/fileson.../32948857/This Ain't Avatar XXX.part76.rar
http://www.intporn.org/redir/fileson.../32950165/This Ain't Avatar XXX.part77.rar
http://www.intporn.org/redir/fileson.../32951387/This Ain't Avatar XXX.part78.rar
http://www.intporn.org/redir/fileson.../32952487/This Ain't Avatar XXX.part79.rar
http://www.intporn.org/redir/fileson.../32953761/This Ain't Avatar XXX.part03.rar
http://www.intporn.org/redir/fileson.../32955389/This Ain't Avatar XXX.part04.rar
http://www.intporn.org/redir/fileson.../32956333/This Ain't Avatar XXX.part05.rar
http://www.intporn.org/redir/fileson.../32957473/This Ain't Avatar XXX.part06.rar
http://www.intporn.org/redir/fileson.../32958377/This Ain't Avatar XXX.part07.rar
http://www.intporn.org/redir/fileson.../32960045/This Ain't Avatar XXX.part08.rar
http://www.intporn.org/redir/fileson.../32961477/This Ain't Avatar XXX.part09.rar
http://www.intporn.org/redir/fileson.../32962889/This Ain't Avatar XXX.part10.rar
http://www.intporn.org/redir/fileson.../32964025/This Ain't Avatar XXX.part11.rar
http://www.intporn.org/redir/fileson.../32965067/This Ain't Avatar XXX.part12.rar
http://www.intporn.org/redir/fileson.../32966161/This Ain't Avatar XXX.part13.rar
http://www.intporn.org/redir/fileson.../32966969/This Ain't Avatar XXX.part14.rar
http://www.intporn.org/redir/fileson.../32968209/This Ain't Avatar XXX.part15.rar
http://www.intporn.org/redir/fileson.../32969327/This Ain't Avatar XXX.part16.rar
http://www.intporn.org/redir/fileson.../32971505/This Ain't Avatar XXX.part17.rar
http://www.intporn.org/redir/fileson.../32972349/This Ain't Avatar XXX.part18.rar
http://www.intporn.org/redir/fileson.../32973771/This Ain't Avatar XXX.part19.rar
http://www.intporn.org/redir/fileson.../32974779/This Ain't Avatar XXX.part20.rar
http://www.intporn.org/redir/fileson.../32975545/This Ain't Avatar XXX.part21.rar
http://www.intporn.org/redir/fileson.../32977719/This Ain't Avatar XXX.part23.rar
http://www.intporn.org/redir/fileson.../32978753/This Ain't Avatar XXX.part24.rar
http://www.intporn.org/redir/fileson.../32980409/This Ain't Avatar XXX.part25.rar
http://www.intporn.org/redir/fileson.../32981689/This Ain't Avatar XXX.part26.rar
http://www.intporn.org/redir/fileson.../32982861/This Ain't Avatar XXX.part27.rar
http://www.intporn.org/redir/fileson.../32984157/This Ain't Avatar XXX.part28.rar
http://www.intporn.org/redir/fileson.../32985121/This Ain't Avatar XXX.part29.rar
http://www.intporn.org/redir/fileson.../32987375/This Ain't Avatar XXX.part31.rar
http://www.intporn.org/redir/fileson.../32988667/This Ain't Avatar XXX.part32.rar
http://www.intporn.org/redir/fileson.../32989719/This Ain't Avatar XXX.part33.rar
http://www.intporn.org/redir/fileson.../32990783/This Ain't Avatar XXX.part34.rar
http://www.intporn.org/redir/fileson.../32993081/This Ain't Avatar XXX.part35.rar
http://www.intporn.org/redir/fileson.../32995427/This Ain't Avatar XXX.part36.rar
http://www.intporn.org/redir/fileson.../32997013/This Ain't Avatar XXX.part37.rar
http://www.intporn.org/redir/fileson.../33243075/This Ain't Avatar XXX.part38.rar
http://www.intporn.org/redir/fileson.../33244167/This Ain't Avatar XXX.part39.rar
http://www.intporn.org/redir/fileson.../33245019/This Ain't Avatar XXX.part40.rar
http://www.intporn.org/redir/fileson.../33245705/This Ain't Avatar XXX.part41.rar
http://www.intporn.org/redir/fileson.../33246525/This Ain't Avatar XXX.part42.rar
http://www.intporn.org/redir/fileson.../33247297/This Ain't Avatar XXX.part43.rar
http://www.intporn.org/redir/fileson.../33248219/This Ain't Avatar XXX.part44.rar
http://www.intporn.org/redir/fileson.../33249459/This Ain't Avatar XXX.part45.rar
http://www.intporn.org/redir/fileson.../33251345/This Ain't Avatar XXX.part46.rar
http://www.intporn.org/redir/fileson.../33252059/This Ain't Avatar XXX.part47.rar
http://www.intporn.org/redir/fileson.../33252627/This Ain't Avatar XXX.part48.rar
http://www.intporn.org/redir/fileson.../33264337/This Ain't Avatar XXX.part49.rar
http://www.intporn.org/redir/fileson.../33266043/This Ain't Avatar XXX.part50.rar
http://www.intporn.org/redir/fileson.../33267135/This Ain't Avatar XXX.part51.rar
http://www.intporn.org/redir/fileson.../33267949/This Ain't Avatar XXX.part52.rar
http://www.intporn.org/redir/fileson.../33268793/This Ain't Avatar XXX.part53.rar
http://www.intporn.org/redir/fileson.../33269737/This Ain't Avatar XXX.part54.rar
http://www.intporn.org/redir/fileson.../33270701/This Ain't Avatar XXX.part55.rar
http://www.intporn.org/redir/fileson.../33271515/This Ain't Avatar XXX.part56.rar
http://www.intporn.org/redir/fileson.../33272709/This Ain't Avatar XXX.part57.rar
http://www.intporn.org/redir/fileson.../33273489/This Ain't Avatar XXX.part58.rar
http://www.intporn.org/redir/fileson.../33274599/This Ain't Avatar XXX.part59.rar
http://www.intporn.org/redir/fileson.../33275595/This Ain't Avatar XXX.part60.rar
http://www.intporn.org/redir/fileson.../33277227/This Ain't Avatar XXX.part61.rar
http://www.intporn.org/redir/fileson.../33278391/This Ain't Avatar XXX.part62.rar
http://www.intporn.org/redir/fileson.../33279279/This Ain't Avatar XXX.part63.rar
http://www.intporn.org/redir/fileson.../33280301/This Ain't Avatar XXX.part64.rar
http://www.intporn.org/redir/fileson.../33281301/This Ain't Avatar XXX.part65.rar
http://www.intporn.org/redir/fileson.../33282361/This Ain't Avatar XXX.part66.rar
http://www.intporn.org/redir/fileson.../33283905/This Ain't Avatar XXX.part67.rar
http://www.intporn.org/redir/fileson.../33284525/This Ain't Avatar XXX.part68.rar
http://www.intporn.org/redir/fileson.../33285291/This Ain't Avatar XXX.part69.rar
http://www.intporn.org/redir/fileson.../33286123/This Ain't Avatar XXX.part70.rar
http://www.intporn.org/redir/fileson.../33287045/This Ain't Avatar XXX.part71.rar
http://www.intporn.org/redir/fileson.../33287495/This Ain't Avatar XXX.part72.rar
http://www.intporn.org/redir/fileson.../33288355/This Ain't Avatar XXX.part80.rar
http://www.intporn.org/redir/fileson.../33289335/This Ain't Avatar XXX.part81.rar
http://www.intporn.org/redir/fileson.../33290381/This Ain't Avatar XXX.part82.rar
http://www.intporn.org/redir/fileson.../33291195/This Ain't Avatar XXX.part83.rar
http://www.intporn.org/redir/fileson.../33292031/This Ain't Avatar XXX.part84.rar


http://www.netload.in/dateiYzSKFy0Y5o/This Ain't Avatar XXX.part01.rar.htm
http://www.netload.in/dateibnckVEW9ye/This Ain't Avatar XXX.part02.rar.htm
http://www.netload.in/dateisMbtxNQAKD/This Ain't Avatar XXX.part03.rar.htm
http://www.netload.in/dateicXUGvifJry/This Ain't Avatar XXX.part84.rar.htm
http://www.netload.in/dateiarFUpjQdH2/This Ain't Avatar XXX.part04.rar.htm
http://www.netload.in/dateiLD1QNUUJh6/This Ain't Avatar XXX.part05.rar.htm
http://www.netload.in/dateiJobbIgM0Cm/This Ain't Avatar XXX.part06.rar.htm
http://www.netload.in/dateiT3yudhidZv/This Ain't Avatar XXX.part07.rar.htm
http://www.netload.in/datei6JHp0yIaX0/This Ain't Avatar XXX.part08.rar.htm
http://www.netload.in/dateiPh2QKjRaZ2/This Ain't Avatar XXX.part09.rar.htm
http://www.netload.in/dateiXYv0mSf0G9/This Ain't Avatar XXX.part10.rar.htm
http://www.netload.in/dateix7jO6rPsLA/This Ain't Avatar XXX.part11.rar.htm
http://www.netload.in/datei6ChOEWYG4E/This Ain't Avatar XXX.part12.rar.htm
http://www.netload.in/dateiiMlmdDEt5M/This Ain't Avatar XXX.part13.rar.htm
http://www.netload.in/dateiyqS4pNOw0A/This Ain't Avatar XXX.part14.rar.htm
http://www.netload.in/dateiZ3DIo96LOE/This Ain't Avatar XXX.part15.rar.htm
http://www.netload.in/dateirNsDpehiOd/This Ain't Avatar XXX.part16.rar.htm
http://www.netload.in/dateieA5TApdcN4/This Ain't Avatar XXX.part17.rar.htm
http://www.netload.in/dateieuQ18cVdoP/This Ain't Avatar XXX.part18.rar.htm
http://www.netload.in/dateiyohjMyLKRM/This Ain't Avatar XXX.part19.rar.htm
http://www.netload.in/dateiwIvufMJfdW/This Ain't Avatar XXX.part20.rar.htm
http://www.netload.in/dateiRzUCcNrM0X/This Ain't Avatar XXX.part21.rar.htm
http://www.netload.in/dateiUL6ce91Uug/This Ain't Avatar XXX.part22.rar.htm
http://www.netload.in/dateiXs8TZoIKoG/This Ain't Avatar XXX.part23.rar.htm
http://www.netload.in/dateic1oByCSZQ0/This Ain't Avatar XXX.part24.rar.htm
http://www.netload.in/dateifykvZNek7u/This Ain't Avatar XXX.part25.rar.htm
http://www.netload.in/dateiO38CsSKJ95/This Ain't Avatar XXX.part26.rar.htm
http://www.netload.in/dateiN7iRoYwf9u/This Ain't Avatar XXX.part27.rar.htm
http://www.netload.in/dateio4swoy5vYF/This Ain't Avatar XXX.part28.rar.htm
http://www.netload.in/dateicRPlEB2gkb/This Ain't Avatar XXX.part29.rar.htm
http://www.netload.in/dateiZQ4GghAGKV/This Ain't Avatar XXX.part30.rar.htm
http://www.netload.in/dateirQCIkCI5OQ/This Ain't Avatar XXX.part31.rar.htm
http://www.netload.in/dateiq6nJU5NyS5/This Ain't Avatar XXX.part32.rar.htm
http://www.netload.in/dateitQ35cHSHPa/This Ain't Avatar XXX.part33.rar.htm
http://www.netload.in/dateiFGGnXnEVbM/This Ain't Avatar XXX.part34.rar.htm
http://www.netload.in/dateiB5QikS8L8r/This Ain't Avatar XXX.part35.rar.htm
http://www.netload.in/datei3W453tcCxq/This Ain't Avatar XXX.part36.rar.htm
http://www.netload.in/dateiDW2FbXADAW/This Ain't Avatar XXX.part37.rar.htm
http://www.netload.in/dateiFdPaFqlySc/This Ain't Avatar XXX.part38.rar.htm
http://www.netload.in/dateiD1pAqs1c2O/This Ain't Avatar XXX.part39.rar.htm
http://www.netload.in/datei4bMHY0V9iu/This Ain't Avatar XXX.part40.rar.htm
http://www.netload.in/dateicc0NJDqCJV/This Ain't Avatar XXX.part41.rar.htm
http://www.netload.in/dateiCySVsuD1PC/This Ain't Avatar XXX.part42.rar.htm
http://www.netload.in/dateiBxn8f1LXfv/This Ain't Avatar XXX.part43.rar.htm
http://www.netload.in/dateiK6N6vT6b6B/This Ain't Avatar XXX.part44.rar.htm
http://www.netload.in/dateiNw3aJpv8KF/This Ain't Avatar XXX.part45.rar.htm
http://www.netload.in/dateivL3fu4SwRc/This Ain't Avatar XXX.part46.rar.htm
http://www.netload.in/datei7r0FJNHhVN/This Ain't Avatar XXX.part47.rar.htm
http://www.netload.in/dateitOwxSLBSwF/This Ain't Avatar XXX.part48.rar.htm
http://www.netload.in/dateizy2meEQjeo/This Ain't Avatar XXX.part49.rar.htm
http://www.netload.in/dateibRtyEEOL1O/This Ain't Avatar XXX.part50.rar.htm
http://www.netload.in/dateis8PlKSewBP/This Ain't Avatar XXX.part51.rar.htm
http://www.netload.in/dateiZdoomzexyz/This Ain't Avatar XXX.part52.rar.htm
http://www.netload.in/datei7wPaOwTCFj/This Ain't Avatar XXX.part53.rar.htm
http://www.netload.in/dateiwZg7NEOn7r/This Ain't Avatar XXX.part54.rar.htm
http://www.netload.in/dateikgJqmTrv8W/This Ain't Avatar XXX.part55.rar.htm
http://www.netload.in/dateixRgkH6mxYu/This Ain't Avatar XXX.part56.rar.htm
http://www.netload.in/datei3BTiLuE6Uv/This Ain't Avatar XXX.part57.rar.htm
http://www.netload.in/dateiW4AguUJvV4/This Ain't Avatar XXX.part58.rar.htm
http://www.netload.in/datei2tZPQTSa20/This Ain't Avatar XXX.part59.rar.htm
http://www.netload.in/dateigZdJgkWEAR/This Ain't Avatar XXX.part60.rar.htm
http://www.netload.in/datei8nwO2AVNNH/This Ain't Avatar XXX.part61.rar.htm
http://www.netload.in/dateiGwB2gOK95F/This Ain't Avatar XXX.part62.rar.htm
http://www.netload.in/dateit7Pix1kWgJ/This Ain't Avatar XXX.part63.rar.htm
http://www.netload.in/datei3kuT6IoBqD/This Ain't Avatar XXX.part64.rar.htm
http://www.netload.in/dateiRI5k5IywAz/This Ain't Avatar XXX.part65.rar.htm
http://www.netload.in/dateikUAxSGD83s/This Ain't Avatar XXX.part66.rar.htm
http://www.netload.in/dateiBV2CeqsXIL/This Ain't Avatar XXX.part67.rar.htm
http://www.netload.in/dateiQHoymlgx0j/This Ain't Avatar XXX.part68.rar.htm
http://www.netload.in/dateir0IQoIHZwc/This Ain't Avatar XXX.part69.rar.htm
http://www.netload.in/dateikWiyTgasbL/This Ain't Avatar XXX.part70.rar.htm
http://www.netload.in/dateiuDDgQdrK6F/This Ain't Avatar XXX.part71.rar.htm
http://www.netload.in/dateiDle0xuMwv9/This Ain't Avatar XXX.part72.rar.htm
http://www.netload.in/dateiLMpLTp1k9F/This Ain't Avatar XXX.part73.rar.htm
http://www.netload.in/dateipuRg7aJCqQ/This Ain't Avatar XXX.part74.rar.htm
http://www.netload.in/dateiG7AVC1LMmr/This Ain't Avatar XXX.part75.rar.htm
http://www.netload.in/dateircq9lwCca7/This Ain't Avatar XXX.part76.rar.htm
http://www.netload.in/dateiZgPU7TcIQB/This Ain't Avatar XXX.part77.rar.htm
http://www.netload.in/dateiG6Cuk0Kzzy/This Ain't Avatar XXX.part78.rar.htm
http://www.netload.in/dateixyfZgvT3Jt/This Ain't Avatar XXX.part79.rar.htm
http://www.netload.in/dateihD0JrFn0bR/This Ain't Avatar XXX.part80.rar.htm
http://www.netload.in/dateiXb9K660Wk9/This Ain't Avatar XXX.part81.rar.htm
http://www.netload.in/dateiZjMSzpwdet/This Ain't Avatar XXX.part82.rar.htm
http://www.netload.in/dateiOi6IbP1uRo/This Ain't Avatar XXX.part83.rar.htm

Last edited by Spydus; 06-22-2011 at 03:04 PM.
Spydus is offline   Reply With Quote
Old 11-25-2010, 03:08 PM   #8
Spydus
Member
 
Join Date: Mar 2010
Posts: 52
Default Re: 3D anaglyph Stereoscopic Porn Movie Thread V.2.0

REALPORN3D SBS Siterip:
REAL GIRLS IN TRUE STEREOSCOPIC 3D!








26 Clips
3.76GB
1920/720
Side by Side format
Format : Windows Media
File size : 583 MiB
Duration : 11mn 23s
Overall bit rate mode : Variable
Overall bit rate : 7 158 Kbps
Maximum Overall bit rate : 9 551 Kbps
Encoded date : UTC 2010-05-12 04:15:06.788
Writing application : TMPGEnc 4.0 XPress Version. 4.7.4.299
Video
ID : 2
Format : VC-1
Format profile : MP@HL
Codec ID : WMV3
Codec ID/Info : Windows Media Video 9
Codec ID/Hint : WMV3
Description of the codec : Windows Media Video 9 - Professional
Duration : 11mn 23s
Bit rate mode : Variable
Bit rate : 7 000 Kbps
Width : 1 920 pixels
Height : 720 pixels
Display aspect ratio : 2.667
Frame rate : 30.000 fps
Bit depth : 8 bits
Scan type : Progressive
Bits/(Pixel*Frame) : 0.169
Stream size : 570 MiB (98%)
Language : English (US)



http://netload.in/datei0Bcn1bSyIu/RE...part15.rar.htm
http://netload.in/datei1QptgYqizc/RE...part21.rar.htm
http://netload.in/datei6D6aAbCh64/RE...part39.rar.htm
http://netload.in/datei7xd0reHwgP/RE...part28.rar.htm
http://netload.in/datei9zqepLbQua/RE...part31.rar.htm
http://netload.in/dateiFKCwGV8NmP/RE...part37.rar.htm
http://netload.in/dateiFPnSI1xFO9/RE...part11.rar.htm
http://netload.in/dateiHpPTxaREax/RE...part13.rar.htm
http://netload.in/dateiIdvtJ7Rp2f/RE...part09.rar.htm
http://netload.in/dateiMJcaikglvY/RE...part27.rar.htm
http://netload.in/dateiMkBMbFLLcw/RE...part16.rar.htm
http://netload.in/dateiOxFH0B658l/RE...part14.rar.htm
http://netload.in/dateiPh4Munb5nj/RE...part17.rar.htm
http://netload.in/dateiQcOgdi44mJ/RE...part05.rar.htm
http://netload.in/dateiQyttf3tqne/RE...part12.rar.htm
http://netload.in/dateiSCqmg7wdip/RE...part06.rar.htm
http://netload.in/dateiSMwJNmgKgP/RE...part24.rar.htm
http://netload.in/dateiU2fu62iVe9/RE...part36.rar.htm
http://netload.in/dateiU6WuVKwQFU/RE...part38.rar.htm
http://netload.in/dateiVn0TESV8qH/RE...part23.rar.htm
http://netload.in/dateiWI5Pa4fu63/RE...part08.rar.htm
http://netload.in/dateiXUoD09FMOr/RE...part34.rar.htm
http://netload.in/dateiZ1Us199eAe/RE...part20.rar.htm
http://netload.in/dateiZMvCyR7UL1/RE...part04.rar.htm
http://netload.in/dateiZfgzVvYOaO/RE...part03.rar.htm
http://netload.in/dateicf7SxgaV6h/RE...part25.rar.htm
http://netload.in/dateidHxvJ45sKt/RE...part32.rar.htm
http://netload.in/dateidXn0eczyDW/RE...part02.rar.htm
http://netload.in/dateieBpjjCpyJh/RE...part26.rar.htm
http://netload.in/dateifi01bypQb8/RE...part01.rar.htm
http://netload.in/dateiigyBWnJkIr/RE...part19.rar.htm
http://netload.in/dateijWoHyGQ6Bz/RE...part35.rar.htm
http://netload.in/dateilE7zhjHkbI/RE...part29.rar.htm
http://netload.in/dateiox6ssEsZ2v/RE...part22.rar.htm
http://netload.in/dateip8usuwZzoC/RE...part07.rar.htm
http://netload.in/dateiqjHuqus6ia/RE...part10.rar.htm
http://netload.in/dateiu5T9d1owai/RE...part30.rar.htm
http://netload.in/dateiu9Pzko0sjJ/RE...part33.rar.htm
http://netload.in/dateiyrRgCJnx3r/RE...part18.rar.htm


http://www.intporn.org/redir/fileson...80p.part01.rar
http://www.intporn.org/redir/fileson...80p.part02.rar
http://www.intporn.org/redir/fileson...80p.part03.rar
http://www.intporn.org/redir/fileson...80p.part04.rar
http://www.intporn.org/redir/fileson...80p.part05.rar
http://www.intporn.org/redir/fileson...80p.part06.rar
http://www.intporn.org/redir/fileson...80p.part08.rar
http://www.intporn.org/redir/fileson...80p.part07.rar
http://www.intporn.org/redir/fileson...80p.part10.rar
http://www.intporn.org/redir/fileson...80p.part09.rar
http://www.intporn.org/redir/fileson...80p.part11.rar
http://www.intporn.org/redir/fileson...80p.part12.rar
http://www.intporn.org/redir/fileson...80p.part14.rar
http://www.intporn.org/redir/fileson...80p.part13.rar
http://www.intporn.org/redir/fileson...80p.part14.rar
http://www.intporn.org/redir/fileson...80p.part13.rar
http://www.intporn.org/redir/fileson...80p.part15.rar
http://www.intporn.org/redir/fileson...80p.part16.rar
http://www.intporn.org/redir/fileson...80p.part17.rar
http://www.intporn.org/redir/fileson...80p.part18.rar
http://www.intporn.org/redir/fileson...80p.part19.rar
http://www.intporn.org/redir/fileson...80p.part20.rar
http://www.intporn.org/redir/fileson...80p.part22.rar
http://www.intporn.org/redir/fileson...80p.part21.rar
http://www.intporn.org/redir/fileson...80p.part23.rar
http://www.intporn.org/redir/fileson...80p.part24.rar
http://www.intporn.org/redir/fileson...80p.part25.rar
http://www.intporn.org/redir/fileson...80p.part26.rar
http://www.intporn.org/redir/fileson...80p.part27.rar
http://www.intporn.org/redir/fileson...80p.part28.rar
http://www.intporn.org/redir/fileson...80p.part29.rar
http://www.intporn.org/redir/fileson...80p.part30.rar
http://www.intporn.org/redir/fileson...80p.part31.rar
http://www.intporn.org/redir/fileson...80p.part32.rar
http://www.intporn.org/redir/fileson...80p.part34.rar
http://www.intporn.org/redir/fileson...80p.part33.rar
http://www.intporn.org/redir/fileson...80p.part35.rar
http://www.intporn.org/redir/fileson...80p.part36.rar
http://www.intporn.org/redir/fileson...80p.part37.rar
http://www.intporn.org/redir/fileson...80p.part38.rar
http://www.intporn.org/redir/fileson...80p.part39.rar

Last edited by Spydus; 06-22-2011 at 03:05 PM.
Spydus is offline   Reply With Quote
Old 12-17-2010, 01:59 PM   #9
Spydus
Member
 
Join Date: Mar 2010
Posts: 52
Default Re: 3D anaglyph Stereoscopic Porn Movie Thread V.2.0

Introducing your original disc bluray 2in1 3D film. You use 3 of ArcSoft TotalMedia Theatre (sim3d plugin) or Cyberlink PowerDVD Ultra's (see the Samsung 3D TV, 3D vision). Please enjoy going down on you. Full of beautiful young Japanese actress.
Renaissance.2010.Blu-ray.JPN.3D-2D.1080P.AVC.LPCM

2D Version

3D Version



INFO
Quote:
Untuched Bluray BDMV Folder format
22.2GB
400mb /54/3 rev. parts
Technical Specs
Blu-ray
BD-25 Single-Layer Disc
Video Resolution/Codec
1080i/AVC MPEG-4
Aspect Ratio(s)
1.78:1
Audio Formats
Japanese LPCM 2.0 (48 kHz / 2304 kbps / 24-bit)
Subtitles/Captions
None
Supplements
None



PW: spy3d

http://www.intporn.org/redir/fileson...PCM.part01.rar
http://www.intporn.org/redir/fileson...PCM.part01.rev
http://www.intporn.org/redir/fileson...PCM.part02.rar
http://www.intporn.org/redir/fileson...PCM.part02.rev
http://www.intporn.org/redir/fileson...PCM.part03.rar
http://www.intporn.org/redir/fileson...PCM.part03.rev
http://www.intporn.org/redir/fileson...PCM.part04.rar
http://www.intporn.org/redir/fileson...PCM.part05.rar
http://www.intporn.org/redir/fileson...PCM.part06.rar
http://www.intporn.org/redir/fileson...PCM.part07.rar
http://www.intporn.org/redir/fileson...PCM.part08.rar
http://www.intporn.org/redir/fileson...PCM.part09.rar
http://www.intporn.org/redir/fileson...PCM.part10.rar
http://www.intporn.org/redir/fileson...PCM.part11.rar
http://www.intporn.org/redir/fileson...PCM.part12.rar
http://www.intporn.org/redir/fileson...PCM.part13.rar
http://www.intporn.org/redir/fileson...PCM.part14.rar
http://www.intporn.org/redir/fileson...PCM.part15.rar
http://www.intporn.org/redir/fileson...PCM.part16.rar
http://www.intporn.org/redir/fileson...PCM.part17.rar
http://www.intporn.org/redir/fileson...PCM.part18.rar
http://www.intporn.org/redir/fileson...PCM.part19.rar
http://www.intporn.org/redir/fileson...PCM.part20.rar
http://www.intporn.org/redir/fileson...PCM.part21.rar
http://www.intporn.org/redir/fileson...PCM.part22.rar
http://www.intporn.org/redir/fileson...PCM.part23.rar
http://www.intporn.org/redir/fileson...PCM.part24.rar
http://www.intporn.org/redir/fileson...PCM.part25.rar
http://www.intporn.org/redir/fileson...PCM.part26.rar
http://www.intporn.org/redir/fileson...PCM.part27.rar
http://www.intporn.org/redir/fileson...PCM.part28.rar
http://www.intporn.org/redir/fileson...PCM.part29.rar
http://www.intporn.org/redir/fileson...PCM.part30.rar
http://www.intporn.org/redir/fileson...PCM.part31.rar
http://www.intporn.org/redir/fileson...PCM.part32.rar
http://www.intporn.org/redir/fileson...PCM.part33.rar
http://www.intporn.org/redir/fileson...PCM.part34.rar
http://www.intporn.org/redir/fileson...PCM.part35.rar
http://www.intporn.org/redir/fileson...PCM.part36.rar
http://www.intporn.org/redir/fileson...PCM.part37.rar
http://www.intporn.org/redir/fileson...PCM.part38.rar
http://www.intporn.org/redir/fileson...PCM.part39.rar
http://www.intporn.org/redir/fileson...PCM.part40.rar
http://www.intporn.org/redir/fileson...PCM.part41.rar
http://www.intporn.org/redir/fileson...PCM.part42.rar
http://www.intporn.org/redir/fileson...PCM.part43.rar
http://www.intporn.org/redir/fileson...PCM.part44.rar
http://www.intporn.org/redir/fileson...PCM.part45.rar
http://www.intporn.org/redir/fileson...PCM.part46.rar
http://www.intporn.org/redir/fileson...PCM.part47.rar
http://www.intporn.org/redir/fileson...PCM.part48.rar
http://www.intporn.org/redir/fileson...PCM.part49.rar
http://www.intporn.org/redir/fileson...PCM.part50.rar
http://www.intporn.org/redir/fileson...PCM.part51.rar
http://www.intporn.org/redir/fileson...PCM.part52.rar
http://www.intporn.org/redir/fileson...PCM.part53.rar
http://www.intporn.org/redir/fileson...PCM.part54.rar



http://netload.in/dateiewjJS9rR72/Re...part54.rar.htm
http://netload.in/dateiPPivCQbz8w/Re...part53.rar.htm
http://netload.in/dateiqe8KTD3n3q/Re...part52.rar.htm
http://netload.in/dateiYYrdI85WkA/Re...part51.rar.htm
http://netload.in/dateiNG3MARM3q2/Re...part50.rar.htm
http://netload.in/dateiyHIYFXxNcf/Re...part49.rar.htm
http://netload.in/dateiKUpYD3Y07i/Re...part48.rar.htm
http://netload.in/dateilrA7JnWWp5/Re...part47.rar.htm
http://netload.in/dateir3SgzCvYXK/Re...part46.rar.htm
http://netload.in/dateijugEmO4Gpy/Re...part45.rar.htm
http://netload.in/dateiB6VTwZ2HM6/Re...part44.rar.htm
http://netload.in/dateiICTuBy9S2R/Re...part43.rar.htm
http://netload.in/dateiuz0Ms1LwKJ/Re...part42.rar.htm
http://netload.in/dateiUBzkEYxOPW/Re...part41.rar.htm
http://netload.in/dateiyAmme0nKDB/Re...part40.rar.htm
http://netload.in/dateipjA5bLb8t5/Re...part39.rar.htm
http://netload.in/datei9eiV85qSbW/Re...part38.rar.htm
http://netload.in/dateiYwWsGNboAA/Re...part37.rar.htm
http://netload.in/dateitu1oWW6l3n/Re...part36.rar.htm
http://netload.in/dateioCBnmh2IUy/Re...part35.rar.htm
http://netload.in/dateidtpuSG4Qk3/Re...part34.rar.htm
http://netload.in/dateitURoOPqdCH/Re...part33.rar.htm
http://netload.in/datei4KJxGWAYcR/Re...part32.rar.htm
http://netload.in/dateiyXnmA1QoW9/Re...part31.rar.htm
http://netload.in/dateiEIgk6BDmQc/Re...part30.rar.htm
http://netload.in/dateiVyN8M1QAXn/Re...part29.rar.htm
http://netload.in/dateiGj11M8Aaox/Re...part28.rar.htm
http://netload.in/dateih9FKNt9MuX/Re...part27.rar.htm
http://netload.in/dateitKq9b0bkvB/Re...part26.rar.htm
http://netload.in/dateizvyj7bnCJ1/Re...part25.rar.htm
http://netload.in/datei4UtTld5fNS/Re...part24.rar.htm
http://netload.in/datei83i7wccaUr/Re...part23.rar.htm
http://netload.in/dateiKvx6IwYyKM/Re...part22.rar.htm
http://netload.in/dateiSneATiuqTm/Re...part21.rar.htm
http://netload.in/dateigR5dtiULEd/Re...part20.rar.htm
http://netload.in/dateiv6qSudDQ3q/Re...part19.rar.htm
http://netload.in/dateiqllWvnd5tF/Re...part18.rar.htm
http://netload.in/dateivVoMzdH3Go/Re...part17.rar.htm
http://netload.in/dateiEfwLyr1hW9/Re...part16.rar.htm
http://netload.in/dateio4UZjFh59s/Re...part15.rar.htm
http://netload.in/datei2Wyalc8Kor/Re...part14.rar.htm
http://netload.in/dateiB0pdKOpqpH/Re...part13.rar.htm
http://netload.in/datei226rYA5ZSl/Re...part12.rar.htm
http://netload.in/dateiMFFjxXkzoi/Re...part11.rar.htm
http://netload.in/datei6emLjwinp3/Re...part10.rar.htm
http://netload.in/dateiF4b17QlFfz/Re...part09.rar.htm
http://netload.in/dateix1Rpd1dy4O/Re...part08.rar.htm
http://netload.in/dateihLh4aBJLEv/Re...part07.rar.htm
http://netload.in/datei17sV2PqhwW/Re...part06.rar.htm
http://netload.in/dateiHQGCJd5MO6/Re...part05.rar.htm
http://netload.in/dateiPd5K3xj55M/Re...part04.rar.htm
http://netload.in/datei66gziOEFab/Re...part03.rev.htm
http://netload.in/dateidCu1DYRdiu/Re...part03.rar.htm
http://netload.in/dateictLkI31TEr/Re...part02.rev.htm
http://netload.in/dateipAkjJqMNHy/Re...part02.rar.htm
http://netload.in/dateiozUTNkmu1o/Re...part01.rev.htm
http://netload.in/datei4CHVWHchub/Re...part01.rar.htm

Last edited by Spydus; 06-22-2011 at 03:09 PM.
Spydus is offline   Reply With Quote
Old 12-24-2010, 02:00 PM   #10
Spydus
Member
 
Join Date: Mar 2010
Posts: 52
Default Re: 3D anaglyph Stereoscopic Porn Movie Thread V.2.0

Member3DPorn.XXX.1080p.SBS.Siterip




INFO

1920/720p Syde by Syde
32 Clips
17GB
200mb rar. / 3rev.

MediaInfo

Quote:
Format : Windows Media
File size : 716 MiB
Duration : 7mn 18s
Overall bit rate mode : Variable
Overall bit rate : 13.7 Mbps
Maximum Overall bit rate : 16.3 Mbps
Encoded date : UTC 2010-07-19 23:43:15.608
SfOriginalFPS : 250000
Video
ID : 2
Format : VC-1
Format profile : MP
Codec ID : WMV3
Codec ID/Info : Windows Media Video 9
Codec ID/Hint : WMV3
Description of the codec : Windows Media Video 9 - Professional
Duration : 7mn 18s
Bit rate mode : Variable
Bit rate : 13.5 Mbps
Width : 3 840 pixels
Height : 1 080 pixels
Display aspect ratio : 3.556
Frame rate : 25.000 fps
Bit depth : 8 bits
Scan type : Progressive
Bits/(Pixel*Frame) : 0.130
Stream size : 706 MiB (99%)
Language : French
Audio
ID : 1
Format : WMA
Format version : Version 2
Codec ID : 161
Codec ID/Info : Windows Media Audio
Description of the codec : Windows Media Audio 9.2 - 128 kbps, 44 kHz, stereo (A/V) 1-pass CBR
Duration : 7mn 18s
Bit rate mode : Constant
Bit rate : 128 Kbps
Channel(s) : 2 channels
Sampling rate : 44.1 KHz
Bit depth : 16 bits
Stream size : 6.69 MiB (1%)
Language : French


Last edited by Spydus; 12-30-2010 at 11:42 AM.
Spydus is offline   Reply With Quote
Reply

Tags
3d, 3d sbs porn, anaglyph, movie, porn, sbs, stereoscopic, thread, v20
Thread Tools

Posting Rules
You may not post new threads
You may not post replies
You may not post attachments
You may not edit your posts

BB code is On
Smilies are On
[IMG] code is On
HTML code is Off


Similar Threads
Thread Thread Starter Forum Replies Last Post
3D Porn Anaglyph & Stereoscopic Collection asianwoman XXX Video Mega Threads 888 06-23-2012 03:58 PM
3D anaglyph Porn Movie-SEX DRINERS BOSS_06 XXX Movie Clips & Video Scenes 3 01-27-2012 11:23 PM
3D anaglyph Porn Movie Colections BOSS_06 XXX Movie Clips & Video Scenes 1 07-10-2011 03:31 PM
3D anaglyph Porn Movie-Cokine3nd-02 BOSS_06 XXX Movie Clips & Video Scenes 0 03-08-2010 05:10 PM
3D anaglyph Porn Movie BOSS_06 XXX Movie Clips & Video Scenes 0 02-23-2010 08:39 PM


All times are GMT. The time now is 02:53 AM.


Popular Free Porn Forums:

XXX Movie Clips | Video Mega Threads | HD Movies | Amateur Videos | Hardcore Pictures

None of the pictures or videos posted to this forum are hosted by our servers or transmitted by our network. The files are typically downloaded from free hosting services like Keep2Share.cc (k2c.cc), Rapidgator.net (rg.to), DepFile.com & DataFile.com. DMCA. §2257.